×

¿Problemas para descargar con Mozilla, EDGE? Deshabilita la opción "Abrir vinculos en una pestaña nueva" tal como lo muestra ésta imagen.

Rush pasión y gloria (2013) HD Latino – CMHDD

661 vistas

Información de Rush pasión y gloria (2013) HD Latino – CMHDD

Datos de la película

  • Calidad: 1080p
  • Audio: Español Latino AC3 5.1 BLURAY - Ingles AC3 5.1 BLURAY
  • Subtitulos: Español Latino SRT- FORZADOS SRT
  • Resolución: 1920x800p
  • Formato: MKV
  • Codec: H.264
  • Encoder: Dracarys
  • Mediainfo: Clic para Mostrar Datos Ver
  • Format                      : Matroska
    Format version              : Version 4
    File size                   : 4.02 GiB
    Duration                    : 2 h 2 min
    Overall bit rate            : 4 678 kb/s
    Movie name                  : Rush pasión y gloria (2013) HD Latino - CMHDD
    Encoded date                : UTC 2020-05-18 15:35:24
    Writing application         : mkvmerge v46.0.0 ('No Deeper Escape') 64-bit
    Writing library             : libebml v1.3.10 + libmatroska v1.5.2

    Video
    ID                          : 1
    Format                      : AVC
    Format/Info                 : Advanced Video Codec
    Format profile              : High@L4.1
    Format settings             : CABAC / 5 Ref Frames
    Format settings, CABAC      : Yes
    Format settings, Reference  : 5 frames
    Codec ID                    : V_MPEG4/ISO/AVC
    Duration                    : 2 h 2 min
    Bit rate                    : 3 500 kb/s
    Width                       : 1 920 pixels
    Height                      : 800 pixels
    Display aspect ratio        : 2.40:1
    Frame rate mode             : Constant
    Frame rate                  : 23.976 (24000/1001) FPS
    Color space                 : YUV
    Chroma subsampling          : 4:2:0
    Bit depth                   : 8 bits
    Scan type                   : Progressive
    Bits/(Pixel*Frame)          : 0.095
    Stream size                 : 2.92 GiB (73%)
    Writing library             : x264 core 157 r2935 545de2f
    Encoding settings           : cabac=1 / ref=5 / deblock=1:0:0 / analyse=0x3:0x113 / me=hex / subme=8 / psy=1 / psy_rd=1.00:0.00 / mixed_ref=1 / me_range=16 / chroma_me=1 / trellis=2 / 8x8dct=1 / cqm=0 / deadzone=21,11 / fast_pskip=1 / chroma_qp_offset=-2 / threads=24 / lookahead_threads=4 / sliced_threads=0 / nr=0 / decimate=1 / interlaced=0 / bluray_compat=0 / constrained_intra=0 / bframes=3 / b_pyramid=2 / b_adapt=1 / b_bias=0 / direct=3 / weightb=1 / open_gop=0 / weightp=2 / keyint=240 / keyint_min=24 / scenecut=40 / intra_refresh=0 / rc_lookahead=50 / rc=abr / mbtree=1 / bitrate=3500 / ratetol=1.0 / qcomp=0.60 / qpmin=0 / qpmax=69 / qpstep=4 / vbv_maxrate=62500 / vbv_bufsize=78125 / nal_hrd=none / filler=0 / ip_ratio=1.40 / aq=1:1.00
    Default                     : Yes
    Forced                      : No
    Color range                 : Limited
    Color primaries             : BT.709
    Transfer characteristics    : BT.709
    Matrix coefficients         : BT.709

    Audio #1
    ID                          : 2
    Format                      : AC-3
    Format/Info                 : Audio Coding 3
    Commercial name             : Dolby Digital
    Codec ID                    : A_AC3
    Duration                    : 2 h 2 min
    Bit rate mode               : Constant
    Bit rate                    : 640 kb/s
    Channel(s)                  : 6 channels
    Channel layout              : L R C LFE Ls Rs
    Sampling rate               : 48.0 kHz
    Frame rate                  : 31.250 FPS (1536 SPF)
    Compression mode            : Lossy
    Delay relative to video     : -5 ms
    Stream size                 : 563 MiB (14%)
    Language                    : Spanish
    Service kind                : Complete Main
    Default                     : Yes
    Forced                      : No

    Audio #2
    ID                          : 3
    Format                      : AC-3
    Format/Info                 : Audio Coding 3
    Commercial name             : Dolby Digital
    Codec ID                    : A_AC3
    Duration                    : 2 h 2 min
    Bit rate mode               : Constant
    Bit rate                    : 640 kb/s
    Channel(s)                  : 6 channels
    Channel layout              : L R C LFE Ls Rs
    Sampling rate               : 48.0 kHz
    Frame rate                  : 31.250 FPS (1536 SPF)
    Compression mode            : Lossy
    Delay relative to video     : -5 ms
    Stream size                 : 563 MiB (14%)
    Language                    : English
    Service kind                : Complete Main
    Default                     : No
    Forced                      : No

    Text #1
    ID                          : 4
    Format                      : UTF-8
    Codec ID                    : S_TEXT/UTF8
    Codec ID/Info               : UTF-8 Plain Text
    Duration                    : 1 h 14 min
    Bit rate                    : 2 b/s
    Count of elements           : 38
    Stream size                 : 1.48 KiB (0%)
    Title                       : SRT-Forzados
    Language                    : Spanish
    Default                     : Yes
    Forced                      : No

    Text #2
    ID                          : 5
    Format                      : UTF-8
    Codec ID                    : S_TEXT/UTF8
    Codec ID/Info               : UTF-8 Plain Text
    Duration                    : 1 h 52 min
    Bit rate                    : 67 b/s
    Count of elements           : 1438
    Stream size                 : 55.0 KiB (0%)
    Title                       : SRT-Completos
    Language                    : Spanish
    Default                     : No
    Forced                      : No

    Menu
    00:00:00.000                : :Chapter 1
    00:05:22.739                : :Chapter 2
    00:11:06.207                : :Chapter 3
    00:14:53.434                : :Chapter 4
    00:20:39.697                : :Chapter 5
    00:24:16.038                : :Chapter 6
    00:29:49.246                : :Chapter 7
    00:36:01.534                : :Chapter 8
    00:40:09.115                : :Chapter 9
    00:46:57.481                : :Chapter 10
    00:51:34.717                : :Chapter 11
    00:59:08.587                : :Chapter 12
    01:05:45.692                : :Chapter 13
    01:12:58.457                : :Chapter 14
    01:19:09.870                : :Chapter 15
    01:24:04.915                : :Chapter 16
    01:29:36.788                : :Chapter 17
    01:35:05.074                : :Chapter 18
    01:46:48.068                : :Chapter 19
    01:53:18.792                : :Chapter 20

  • Peso: 4.02 GiB

Sinopsis

Ambientada en los años 70, durante la glamourosa y espectacular Edad de Oro de la Fórmula 1, «RUSH» retrata la poderosa historia real de los dos mayores rivales que el mundo ha conocido: el apuesto playboy inglés James Hunt (Chris Hemsworth), y su metódico y brillante oponente, Niki Lauda (Daniel Brühl). Dentro y fuera de la pista, los dos pilotos se presionan a sí mismos hasta llegar al límite de su resistencia física y psicológica en un mundo donde no existen atajos hacia la victoria ni margen de error. Si cometes uno, mueres.

Ficha técnica

Video trailer de la película

Enlaces de descarga

Rip de Bluray

Descargar Rush pasión y gloria (2013) HD Latino – CMHDD




Aportes de DPeliculasHDmega la pass es:dpeliculashdmega.org Aportes de CinemaniaHD la pass es:cinemaniahdd.com
Guardado en : Acción , Drama , HD 1080p

Películas relacionadas

  • Paradise Highway (2022) HD 1080p Latino

    Paradise Highway (2022) HD 1080p Latino

    2022
    Paradise Highway (2022) HD 1080p Latino

    1h 55m 2022

    Descargar Paradise Highway (2022) HD 1080p Latino. Un camionero se ha visto obligado a pasar de contrabando...

    Director: Anna Gutto

    Género: Crimen

    Actores: Xavier Scott Evans

  • Paradise Highway (2022) PLACEBO Full HD 1080p Latino

    Paradise Highway (2022) PLACEBO Full HD 1080p Latino

    2022
    Paradise Highway (2022) PLACEBO Full HD 1080p Latino

    1h 55m 2022

    Descargar Paradise Highway (2022) PLACEBO Full HD 1080p Latino. Un camionero se ha visto obligado a pasar...

    Director: Anna Gutto

    Género: Crimen

    Actores: Xavier Scott Evans

  • Paradise Highway (2022) REMUX 1080p Latino

    Paradise Highway (2022) REMUX 1080p Latino

    2022
    Paradise Highway (2022) REMUX 1080p Latino

    1h 55m 2022

    Descargar Paradise Highway (2022) REMUX 1080p Latino. Un camionero se ha visto obligado a pasar de contrabando...

    Director: Anna Gutto

    Género: Crimen

    Actores: Xavier Scott Evans

  • Shotgun Wedding (2022) AMZN WEB-DL 1080p Latino

    Shotgun Wedding (2022) AMZN WEB-DL 1080p Latino

    2022
    Shotgun Wedding (2022) AMZN WEB-DL 1080p Latino

    1h 41m 2022

    Darcy y Tom reúnen a sus familias para la boda de destino definitiva, pero cuando toman como rehenes...

    Director: Jason Moore

    Género: Acción

    Actores: Steve Coulter

descargar Rush pasión y gloria (2013) HD Latino – CMHDD 1080p 1080p gratis, Rush pasión y gloria (2013) HD Latino – CMHDD 1080p mega 1 link, Rush pasión y gloria (2013) HD Latino – CMHDD 1080p pelicula completa, descargar Rush pasión y gloria (2013) HD Latino – CMHDD 1080p gratis en mega.

Rush pasión y gloria (2013) HD Latino – CMHDD pelicula full hd, Rush pasión y gloria (2013) HD Latino – CMHDD mega latino, Rush pasión y gloria (2013) HD Latino – CMHDD 4k latino, Rush pasión y gloria (2013) HD Latino – CMHDD pelicula completa, Rush pasión y gloria (2013) HD Latino – CMHDD descargar gratis, descargar Rush pasión y gloria (2013) HD Latino – CMHDD pelicula latino, Rush pasión y gloria (2013) HD Latino – CMHDD 1 link mega, Rush pasión y gloria (2013) HD Latino – CMHDD 1 link google drive, Rush pasión y gloria (2013) HD Latino – CMHDD hd 1080p latino.
Comentarios 0