×

¿Problemas para descargar con Mozilla, EDGE? Deshabilita la opción "Abrir vinculos en una pestaña nueva" tal como lo muestra ésta imagen.

Runaway Bride (1999) REMUX 1080p Latino – CMHDD

141 vistas

Información de Runaway Bride (1999) REMUX 1080p Latino – CMHDD

Datos de la película

  • Calidad: Full 1080p
  • Audio: Español Latino AC3 1.0 BLURAY - Ingles DTS 5.1 BLURAY
  • Subtitulos: Español Latino PGS
  • Resolución: 19201080p
  • Formato: MKV
  • Codec: H.264
  • Encoder: Dracarys
  • Mediainfo: Clic para Mostrar Datos Ver
  • Format                      : Matroska
    Format version              : Version 4
    File size                   : 27.8 GiB
    Duration                    : 1 h 56 min
    Overall bit rate mode       : Variable
    Overall bit rate            : 34.2 Mb/s
    Movie name                  : Runaway Bride (1999) REMUX 1080p Latino - CMHDD
    Encoded date                : UTC 2023-11-26 20:14:44
    Writing application         : mkvmerge v47.0.0 ('Black Flag') 64-bit
    Writing library             : libebml v1.3.10 + libmatroska v1.5.2

    Video
    ID                          : 1
    Format                      : AVC
    Format/Info                 : Advanced Video Codec
    Format profile              : High@L4.1
    Format settings             : CABAC / 2 Ref Frames
    Format settings, CABAC      : Yes
    Format settings, Reference  : 2 frames
    Codec ID                    : V_MPEG4/ISO/AVC
    Duration                    : 1 h 56 min
    Bit rate mode               : Variable
    Bit rate                    : 29.9 Mb/s
    Width                       : 1 920 pixels
    Height                      : 1 080 pixels
    Display aspect ratio        : 16:9
    Frame rate mode             : Constant
    Frame rate                  : 23.976 (24000/1001) FPS
    Color space                 : YUV
    Chroma subsampling          : 4:2:0
    Bit depth                   : 8 bits
    Scan type                   : Progressive
    Bits/(Pixel*Frame)          : 0.602
    Stream size                 : 24.3 GiB (88%)
    Default                     : Yes
    Forced                      : No

    Audio #1
    ID                          : 2
    Format                      : DTS XLL
    Format/Info                 : Digital Theater Systems
    Commercial name             : DTS-HD Master Audio
    Codec ID                    : A_DTS
    Duration                    : 1 h 56 min
    Bit rate mode               : Variable
    Bit rate                    : 4 003 kb/s
    Channel(s)                  : 6 channels
    Channel layout              : C L R Ls Rs LFE
    Sampling rate               : 48.0 kHz
    Frame rate                  : 93.750 FPS (512 SPF)
    Bit depth                   : 24 bits
    Compression mode            : Lossless
    Stream size                 : 3.25 GiB (12%)
    Language                    : English
    Default                     : No
    Forced                      : No

    Audio #2
    ID                          : 3
    Format                      : AC-3
    Format/Info                 : Audio Coding 3
    Commercial name             : Dolby Digital
    Codec ID                    : A_AC3
    Duration                    : 1 h 56 min
    Bit rate mode               : Constant
    Bit rate                    : 192 kb/s
    Channel(s)                  : 1 channel
    Channel layout              : C
    Sampling rate               : 48.0 kHz
    Frame rate                  : 31.250 FPS (1536 SPF)
    Compression mode            : Lossy
    Stream size                 : 160 MiB (1%)
    Language                    : Spanish
    Service kind                : Complete Main
    Default                     : Yes
    Forced                      : No

    Text
    ID                          : 4
    Format                      : PGS
    Muxing mode                 : zlib
    Codec ID                    : S_HDMV/PGS
    Codec ID/Info               : Picture based subtitle format used on BDs/HD-DVDs
    Duration                    : 1 h 54 min
    Bit rate                    : 40.2 kb/s
    Frame rate                  : 0.434 FPS
    Count of elements           : 2988
    Stream size                 : 33.0 MiB (0%)
    Language                    : Spanish
    Default                     : No
    Forced                      : No

     

  • Peso: 27.8 GiB

Sinopsis

Ike Graham, redactor de un periódico de Nueva York, abrumado por diversos problemas, decide aislarse en su refugio favorito a fin de encontrar ideas para escribir. Allí se entera del caso de Maggie, una joven que vive en una zona rural del estado de Maryland, a la que le encantan los compromisos matrimoniales, pero le horroriza el matrimonio. Intrigado, Ike escribe una columna sobre el caso de la joven, sin prever el enfado de Maggie y la cadena de enredos que acabará desatando.

Ficha técnica

Video trailer de la película

Enlaces de descarga

Rip de Bluray

Descargar Runaway Bride (1999) REMUX 1080p Latino – CMHDD




Aportes de DPeliculasHDmega la pass es:dpeliculashdmega.org Aportes de CinemaniaHD la pass es:cinemaniahdd.com Aportes recientes:cinemaniahdd.net
Guardado en : Comedia , Romance

Películas relacionadas

descargar Runaway Bride (1999) REMUX 1080p Latino – CMHDD Full 1080p 1080p gratis, Runaway Bride (1999) REMUX 1080p Latino – CMHDD Full 1080p mega 1 link, Runaway Bride (1999) REMUX 1080p Latino – CMHDD Full 1080p pelicula completa, descargar Runaway Bride (1999) REMUX 1080p Latino – CMHDD Full 1080p gratis en mega.

Runaway Bride (1999) REMUX 1080p Latino – CMHDD pelicula full hd, Runaway Bride (1999) REMUX 1080p Latino – CMHDD mega latino, Runaway Bride (1999) REMUX 1080p Latino – CMHDD 4k latino, Runaway Bride (1999) REMUX 1080p Latino – CMHDD pelicula completa, Runaway Bride (1999) REMUX 1080p Latino – CMHDD descargar gratis, descargar Runaway Bride (1999) REMUX 1080p Latino – CMHDD pelicula latino, Runaway Bride (1999) REMUX 1080p Latino – CMHDD 1 link mega, Runaway Bride (1999) REMUX 1080p Latino – CMHDD 1 link google drive, Runaway Bride (1999) REMUX 1080p Latino – CMHDD hd 1080p latino.
Comentarios 0