×

¿Problemas para descargar con Mozilla, EDGE? Deshabilita la opción "Abrir vinculos en una pestaña nueva" tal como lo muestra ésta imagen.

Run All Night (2015) REMUX 1080p Latino – CMHDD

122 vistas

Información de Run All Night (2015) REMUX 1080p Latino – CMHDD

Datos de la película

  • Calidad: Full 1080p
  • Audio: Español Latino AC3 5.1 BLURAY - Ingles DTS-HD Master 7.1 BLURAY
  • Subtitulos: Español Latino PGS
  • Resolución: 19201080p
  • Formato: MKV
  • Codec: H.264
  • Encoder: Dracarys
  • Mediainfo: Clic para Mostrar Datos Ver
  • Format                      : Matroska
    Format version              : Version 4
    File size                   : 24.7 GiB
    Duration                    : 1 h 54 min
    Overall bit rate mode       : Variable
    Overall bit rate            : 31.0 Mb/s
    Movie name                  : Run All Night (2015) REMUX 1080p Latino - CMHDD
    Encoded date                : UTC 2023-10-03 02:55:36
    Writing application         : mkvmerge v47.0.0 ('Black Flag') 64-bit
    Writing library             : libebml v1.3.10 + libmatroska v1.5.2
    Cover                       : Yes
    Attachments                 : cover.jpg

    Video
    ID                          : 1
    ID in the original source m : 4113 (0x1011)
    Format                      : AVC
    Format/Info                 : Advanced Video Codec
    Format profile              : High@L4.1
    Format settings             : CABAC / 2 Ref Frames
    Format settings, CABAC      : Yes
    Format settings, Reference  : 2 frames
    Format settings, GOP        : M=1, N=10
    Codec ID                    : V_MPEG4/ISO/AVC
    Duration                    : 1 h 54 min
    Bit rate mode               : Variable
    Bit rate                    : 24.9 Mb/s
    Width                       : 1 920 pixels
    Height                      : 1 080 pixels
    Display aspect ratio        : 16:9
    Frame rate mode             : Constant
    Frame rate                  : 23.976 (24000/1001) FPS
    Color space                 : YUV
    Chroma subsampling          : 4:2:0
    Bit depth                   : 8 bits
    Scan type                   : Progressive
    Bits/(Pixel*Frame)          : 0.501
    Stream size                 : 19.9 GiB (80%)
    Default                     : Yes
    Forced                      : No
    Original source medium      : Blu-ray

    Audio #1
    ID                          : 2
    ID in the original source m : 4352 (0x1100)
    Format                      : DTS XLL
    Format/Info                 : Digital Theater Systems
    Commercial name             : DTS-HD Master Audio
    Codec ID                    : A_DTS
    Duration                    : 1 h 54 min
    Bit rate mode               : Variable
    Bit rate                    : 4 748 kb/s
    Channel(s)                  : 8 channels
    Channel layout              : C L R LFE Lb Rb Lss Rss
    Sampling rate               : 48.0 kHz
    Frame rate                  : 93.750 FPS (512 SPF)
    Bit depth                   : 24 bits
    Compression mode            : Lossless
    Stream size                 : 3.79 GiB (15%)
    Language                    : English
    Default                     : No
    Forced                      : No
    Original source medium      : Blu-ray

    Audio #2
    ID                          : 3
    ID in the original source m : 4353 (0x1101)
    Format                      : AC-3
    Format/Info                 : Audio Coding 3
    Commercial name             : Dolby Digital
    Codec ID                    : A_AC3
    Duration                    : 1 h 54 min
    Bit rate mode               : Constant
    Bit rate                    : 640 kb/s
    Channel(s)                  : 6 channels
    Channel layout              : L R C LFE Ls Rs
    Sampling rate               : 48.0 kHz
    Frame rate                  : 31.250 FPS (1536 SPF)
    Compression mode            : Lossy
    Stream size                 : 523 MiB (2%)
    Language                    : English
    Service kind                : Complete Main
    Default                     : No
    Forced                      : No
    Original source medium      : Blu-ray

    Audio #3
    ID                          : 4
    ID in the original source m : 4355 (0x1103)
    Format                      : AC-3
    Format/Info                 : Audio Coding 3
    Commercial name             : Dolby Digital
    Codec ID                    : A_AC3
    Duration                    : 1 h 54 min
    Bit rate mode               : Constant
    Bit rate                    : 640 kb/s
    Channel(s)                  : 6 channels
    Channel layout              : L R C LFE Ls Rs
    Sampling rate               : 48.0 kHz
    Frame rate                  : 31.250 FPS (1536 SPF)
    Compression mode            : Lossy
    Stream size                 : 523 MiB (2%)
    Language                    : Spanish
    Service kind                : Complete Main
    Default                     : Yes
    Forced                      : No
    Original source medium      : Blu-ray

    Text #1
    ID                          : 5
    ID in the original source m : 4610 (0x1202)
    Format                      : PGS
    Muxing mode                 : zlib
    Codec ID                    : S_HDMV/PGS
    Codec ID/Info               : Picture based subtitle format used on BDs/HD-DVDs
    Duration                    : 1 h 53 min
    Bit rate                    : 28.2 kb/s
    Frame rate                  : 0.383 FPS
    Count of elements           : 2608
    Stream size                 : 22.9 MiB (0%)
    Language                    : Spanish
    Default                     : No
    Forced                      : No
    Original source medium      : Blu-ray

    Text #2
    ID                          : 6
    ID in the original source m : 4612 (0x1204)
    Format                      : PGS
    Muxing mode                 : zlib
    Codec ID                    : S_HDMV/PGS
    Codec ID/Info               : Picture based subtitle format used on BDs/HD-DVDs
    Duration                    : 1 h 52 min
    Bit rate                    : 221 b/s
    Frame rate                  : 0.003 FPS
    Count of elements           : 22
    Stream size                 : 183 KiB (0%)
    Language                    : Spanish
    Default                     : Yes
    Forced                      : No
    Original source medium      : Blu-ray

    Menu
    00:00:00.000                : en:Capítulo 01
    00:09:02.792                : en:Capítulo 02
    00:20:32.272                : en:Capítulo 03
    00:29:24.345                : en:Capítulo 04
    00:41:17.558                : en:Capítulo 05
    00:50:29.818                : en:Capítulo 06
    01:01:35.942                : en:Capítulo 07
    01:10:56.794                : en:Capítulo 08
    01:19:52.120                : en:Capítulo 09
    01:34:14.440                : en:Capítulo 10
    01:39:08.776                : en:Capítulo 11
    01:48:38.386                : en:Capítulo 12

     

  • Peso: 24.7 GiB

Sinopsis

Al veterano mercenario Jimmy Conlon, conocido como El Cavatumbas, lo persiguen los crímenes del pasado, pero tambien el policía que le ha seguido la pista durante 30 años. Cuando se entera de que su hijo Mike corre peligro, Jimmy tiene que elegir entre el clan criminal al que ha pertenecido siempre y su familia, a la que había abandonado hace mucho tiempo. Sólo dispone de una noche para averiguar a quién debe su lealtad.

Ficha técnica

Video trailer de la película

Enlaces de descarga

Rip de Bluray

Descargar Run All Night (2015) REMUX 1080p Latino – CMHDD




Aportes de DPeliculasHDmega la pass es:dpeliculashdmega.org Aportes de CinemaniaHD la pass es:cinemaniahdd.com Aportes recientes:cinemaniahdd.net
Guardado en : Acción , Crimen , Suspenso

Películas relacionadas

descargar Run All Night (2015) REMUX 1080p Latino – CMHDD Full 1080p 1080p gratis, Run All Night (2015) REMUX 1080p Latino – CMHDD Full 1080p mega 1 link, Run All Night (2015) REMUX 1080p Latino – CMHDD Full 1080p pelicula completa, descargar Run All Night (2015) REMUX 1080p Latino – CMHDD Full 1080p gratis en mega.

Run All Night (2015) REMUX 1080p Latino – CMHDD pelicula full hd, Run All Night (2015) REMUX 1080p Latino – CMHDD mega latino, Run All Night (2015) REMUX 1080p Latino – CMHDD 4k latino, Run All Night (2015) REMUX 1080p Latino – CMHDD pelicula completa, Run All Night (2015) REMUX 1080p Latino – CMHDD descargar gratis, descargar Run All Night (2015) REMUX 1080p Latino – CMHDD pelicula latino, Run All Night (2015) REMUX 1080p Latino – CMHDD 1 link mega, Run All Night (2015) REMUX 1080p Latino – CMHDD 1 link google drive, Run All Night (2015) REMUX 1080p Latino – CMHDD hd 1080p latino.
Comentarios 0