×

¿Problemas para descargar con Mozilla, EDGE? Deshabilita la opción "Abrir vinculos en una pestaña nueva" tal como lo muestra ésta imagen.

La Excepcion A La Regla (2016) REMUX 1080p Latino

150 vistas

Información de La Excepcion A La Regla (2016) REMUX 1080p Latino

Datos de la película

  • Calidad: Full 1080p
  • Audio: Español Latino AC3 5.1 BLURAY - Ingles DTS 5.1 BLURAY
  • Subtitulos: Español Latino PGS - Ingles PGS
  • Resolución: 1920x1080p
  • Formato: MKV
  • Codec: H.264
  • Encoder: CinefiloCool
  • Mediainfo: Clic para Mostrar Datos Ver
  • La Excepcion A La Regla (2016) REMUX 1080p Latino-CMHDD.mkv
    Format                      : Matroska
    Format version              : Version 4
    File size                   : 28.4 GiB
    Duration                    : 2 h 6 min
    Overall bit rate mode       : Variable
    Overall bit rate            : 32.2 Mb/s
    Movie name                  : Rules Don't Apply (2016) CinemaniaHDD.Net
    Encoded date                : UTC 2021-09-17 09:49:37
    Writing application         : mkvmerge v56.1.0 ('My Friend') 64-bit
    Writing library             : libebml v1.4.2 + libmatroska v1.6.4
    Attachments                 : CINEMANIAHD.png

    Video
    ID                          : 1
    Format                      : AVC
    Format/Info                 : Advanced Video Codec
    Format profile              : High@L4.1
    Format settings             : CABAC / 4 Ref Frames
    Format settings, CABAC      : Yes
    Format settings, Reference  : 4 frames
    Codec ID                    : V_MPEG4/ISO/AVC
    Duration                    : 2 h 6 min
    Bit rate mode               : Variable
    Bit rate                    : 28.2 Mb/s
    Maximum bit rate            : 31.0 Mb/s
    Width                       : 1 920 pixels
    Height                      : 1 080 pixels
    Display aspect ratio        : 16:9
    Frame rate mode             : Constant
    Frame rate                  : 23.976 (24000/1001) FPS
    Color space                 : YUV
    Chroma subsampling          : 4:2:0
    Bit depth                   : 8 bits
    Scan type                   : Progressive
    Bits/(Pixel*Frame)          : 0.568
    Stream size                 : 24.9 GiB (88%)
    Title                       : REMUX HD1080p [CinemaniaHDD]
    Default                     : Yes
    Forced                      : Yes

    Audio #1
    ID                          : 2
    Format                      : AC-3
    Format/Info                 : Audio Coding 3
    Commercial name             : Dolby Digital
    Codec ID                    : A_AC3
    Duration                    : 2 h 6 min
    Bit rate mode               : Constant
    Bit rate                    : 448 kb/s
    Channel(s)                  : 6 channels
    Channel layout              : L R C LFE Ls Rs
    Sampling rate               : 48.0 kHz
    Frame rate                  : 31.250 FPS (1536 SPF)
    Compression mode            : Lossy
    Stream size                 : 405 MiB (1%)
    Title                       : Español Latino [CinemaniaHDD]
    Language                    : Spanish
    Service kind                : Complete Main
    Default                     : Yes
    Forced                      : Yes

    Audio #2
    ID                          : 3
    Format                      : DTS XLL
    Format/Info                 : Digital Theater Systems
    Commercial name             : DTS-HD Master Audio
    Codec ID                    : A_DTS
    Duration                    : 2 h 6 min
    Bit rate mode               : Variable
    Bit rate                    : 3 438 kb/s
    Channel(s)                  : 6 channels
    Channel layout              : C L R Ls Rs LFE
    Sampling rate               : 48.0 kHz
    Frame rate                  : 93.750 FPS (512 SPF)
    Bit depth                   : 24 bits
    Compression mode            : Lossless
    Stream size                 : 3.03 GiB (11%)
    Title                       : Ingles [CinemaniaHDD]
    Language                    : English
    Default                     : No
    Forced                      : No

    Text #1
    ID                          : 4
    Format                      : PGS
    Muxing mode                 : zlib
    Codec ID                    : S_HDMV/PGS
    Codec ID/Info               : Picture based subtitle format used on BDs/HD-DVDs
    Duration                    : 1 h 59 min
    Bit rate                    : 1 906 b/s
    Count of elements           : 144
    Stream size                 : 1.63 MiB (0%)
    Title                       : Forzados-PGS [CinemaniaHDD]
    Language                    : Spanish
    Default                     : No
    Forced                      : No

    Text #2
    ID                          : 5
    Format                      : PGS
    Muxing mode                 : zlib
    Codec ID                    : S_HDMV/PGS
    Codec ID/Info               : Picture based subtitle format used on BDs/HD-DVDs
    Duration                    : 2 h 5 min
    Bit rate                    : 47.4 kb/s
    Count of elements           : 4020
    Stream size                 : 42.5 MiB (0%)
    Title                       : Español-PGS [CinemaniaHDD]
    Language                    : Spanish
    Default                     : No
    Forced                      : No

    Text #3
    ID                          : 6
    Format                      : PGS
    Muxing mode                 : zlib
    Codec ID                    : S_HDMV/PGS
    Codec ID/Info               : Picture based subtitle format used on BDs/HD-DVDs
    Duration                    : 2 h 4 min
    Bit rate                    : 57.3 kb/s
    Count of elements           : 5142
    Stream size                 : 51.0 MiB (0%)
    Title                       : Ingles-PGS [CinemaniaHDD]
    Language                    : English
    Default                     : No
    Forced                      : No

    Text #4
    ID                          : 7
    Format                      : UTF-8
    Codec ID                    : S_TEXT/UTF8
    Codec ID/Info               : UTF-8 Plain Text
    Duration                    : 1 h 56 min
    Bit rate                    : 3 b/s
    Count of elements           : 71
    Stream size                 : 2.81 KiB (0%)
    Title                       : Forzados-SRT [CinemaniaHDD]
    Language                    : Spanish
    Default                     : Yes
    Forced                      : Yes

    Text #5
    ID                          : 8
    Format                      : UTF-8
    Codec ID                    : S_TEXT/UTF8
    Codec ID/Info               : UTF-8 Plain Text
    Duration                    : 2 h 1 min
    Bit rate                    : 78 b/s
    Count of elements           : 2009
    Stream size                 : 70.0 KiB (0%)
    Title                       : Español-SRT [CinemaniaHDD]
    Language                    : Spanish
    Default                     : No
    Forced                      : No

    Menu
    00:00:00.000                : 00:00:00.000
    00:03:47.519                : 00:03:47.519
    00:06:54.456                : 00:06:54.456
    00:11:44.412                : 00:11:44.412
    00:15:57.373                : 00:15:57.373
    00:21:31.165                : 00:21:31.165
    00:28:39.760                : 00:28:39.760
    00:31:49.533                : 00:31:49.533
    00:38:12.165                : 00:38:12.165
    00:41:54.011                : 00:41:54.011
    00:46:55.771                : 00:46:55.771
    00:52:16.633                : 00:52:16.633
    00:56:21.503                : 00:56:21.503
    01:03:14.833                : 01:03:14.833
    01:07:13.947                : 01:07:13.947
    01:12:35.893                : 01:12:35.893
    01:16:39.887                : 01:16:39.887
    01:20:47.843                : 01:20:47.843
    01:25:17.321                : 01:25:17.321
    01:29:58.685                : 01:29:58.685
    01:35:58.586                : 01:35:58.586
    01:44:52.536                : 01:44:52.536
    01:53:26.216                : 01:53:26.216
    02:01:34.412                : 02:01:34.412

  • Peso: 28.4 GiB

Sinopsis

Descargar La Excepcion A La Regla (2016) REMUX 1080p Latino. Hollywood, año 1958. La joven baptista Marla Mabrey (Lily Collins) llega desde una pequeña población del medio oeste a Los Angeles para trabajar para el magnate y millonario Howard Hughes (Beatty). En el aeropuerto conoce al chófer de su jefe, el joven Frank Forbes (Alden Ehrenreich), que apenas lleva dos semanas trabajando y resulta ser una persona también muy religiosa. Su inmediata atracción mutua pondrá sus convicciones a prueba además de romper la regla número 1 del Sr. Hughes: está prohibido que sus empleados intimen con sus actrices.

Disponible Solo Para VIP!!! 😀

Ficha técnica

Video trailer de la película

Enlaces de descarga

Rip de Bluray

Descargar La Excepcion A La Regla (2016) REMUX 1080p Latino


Aportes de DPeliculasHDmega la pass es:dpeliculashdmega.org Aportes de CinemaniaHD la pass es:cinemaniahdd.com
Guardado en : Comedia , Drama , Remux , Romance

Películas relacionadas

descargar La Excepcion A La Regla (2016) REMUX 1080p Latino Full 1080p 1080p gratis, La Excepcion A La Regla (2016) REMUX 1080p Latino Full 1080p mega 1 link, La Excepcion A La Regla (2016) REMUX 1080p Latino Full 1080p pelicula completa, descargar La Excepcion A La Regla (2016) REMUX 1080p Latino Full 1080p gratis en mega.

La Excepcion A La Regla (2016) REMUX 1080p Latino pelicula full hd, La Excepcion A La Regla (2016) REMUX 1080p Latino mega latino, La Excepcion A La Regla (2016) REMUX 1080p Latino 4k latino, La Excepcion A La Regla (2016) REMUX 1080p Latino pelicula completa, La Excepcion A La Regla (2016) REMUX 1080p Latino descargar gratis, descargar La Excepcion A La Regla (2016) REMUX 1080p Latino pelicula latino, La Excepcion A La Regla (2016) REMUX 1080p Latino 1 link mega, La Excepcion A La Regla (2016) REMUX 1080p Latino 1 link google drive, La Excepcion A La Regla (2016) REMUX 1080p Latino hd 1080p latino.
Comentarios 0