×

¿Problemas para descargar con Mozilla, EDGE? Deshabilita la opción "Abrir vinculos en una pestaña nueva" tal como lo muestra ésta imagen.

Ruido de fondo (2022) NF WEB-DL 1080p Latino

30 vistas

Información de Ruido de fondo (2022) NF WEB-DL 1080p Latino

Datos de la película

  • Calidad: WEBDL
  • Audio: Español Latino E-AC3 5.1 Netflix - Ingles E-AC3 5.1 Netflix
  • Subtitulos: Español Latino SRT- FORZADOS SRT
  • Resolución: 1920x1080p
  • Formato: MKV
  • Codec: H.264
  • Encoder: Melkor
  • Mediainfo: Clic para Mostrar Datos Ver
  • Ruido De Fondo (2022) NF Web-DL 1080p Latino.mkv
    Format                      : Matroska
    Format version              : Version 4
    File size                   : 8.56 GiB
    Duration                    : 2 h 16 min
    Overall bit rate mode       : Variable
    Overall bit rate            : 8 950 kb/s
    Movie name                  : White Noise (2022) CinemaniaHDD.Net
    Encoded date                : UTC 2022-12-31 01:45:45
    Writing application         : mkvmerge v56.1.0 ('My Friend') 64-bit
    Writing library             : libebml v1.4.2 + libmatroska v1.6.4
    Attachments                 : CINEMANIAHD.png

    Video
    ID                          : 1
    Format                      : AVC
    Format/Info                 : Advanced Video Codec
    Format profile              : High@L4
    Format settings             : CABAC / 4 Ref Frames
    Format settings, CABAC      : Yes
    Format settings, Reference  : 4 frames
    Codec ID                    : V_MPEG4/ISO/AVC
    Duration                    : 2 h 16 min
    Bit rate mode               : Variable
    Bit rate                    : 6 900 kb/s
    Maximum bit rate            : 20.0 Mb/s
    Width                       : 1 920 pixels
    Height                      : 1 080 pixels
    Display aspect ratio        : 16:9
    Frame rate mode             : Constant
    Frame rate                  : 24.000 FPS
    Color space                 : YUV
    Chroma subsampling          : 4:2:0
    Bit depth                   : 8 bits
    Scan type                   : Progressive
    Bits/(Pixel*Frame)          : 0.139
    Stream size                 : 6.60 GiB (77%)
    Title                       : Web HD1080p [CinemaniaHDD]
    Writing library             : x264 core 148 r2727 7d026e8
    Encoding settings           : cabac=1 / ref=4 / deblock=1:0:0 / analyse=0x3:0x111 / me=umh / subme=10 / psy=1 / psy_rd=1.00:0.00 / mixed_ref=1 / me_range=120 / chroma_me=1 / trellis=2 / 8x8dct=1 / cqm=0 / deadzone=21,11 / fast_pskip=1 / chroma_qp_offset=-2 / threads=8 / lookahead_threads=2 / sliced_threads=0 / nr=0 / decimate=1 / interlaced=0 / bluray_compat=0 / stitchable=1 / constrained_intra=0 / bframes=16 / b_pyramid=2 / b_adapt=2 / b_bias=0 / direct=3 / weightb=1 / open_gop=0 / weightp=2 / keyint=240 / keyint_min=121 / scenecut=0 / intra_refresh=0 / rc_lookahead=240 / rc=crf / mbtree=1 / crf=17.0 / qcomp=0.50 / qpmin=6 / qpmax=51 / qpstep=4 / vbv_maxrate=20000 / vbv_bufsize=25000 / crf_max=0.0 / nal_hrd=vbr / filler=0 / ip_ratio=1.40 / aq=1:0.80
    Language                    : English
    Default                     : Yes
    Forced                      : Yes

    Audio #1
    ID                          : 2
    Format                      : AC-3
    Format/Info                 : Audio Coding 3
    Commercial name             : Dolby Digital
    Codec ID                    : A_AC3
    Duration                    : 2 h 16 min
    Bit rate mode               : Constant
    Bit rate                    : 640 kb/s
    Channel(s)                  : 6 channels
    Channel layout              : L R C LFE Ls Rs
    Sampling rate               : 48.0 kHz
    Frame rate                  : 31.250 FPS (1536 SPF)
    Compression mode            : Lossy
    Stream size                 : 627 MiB (7%)
    Title                       : Español Latino AC3 [CinemaniaHDD]
    Language                    : Spanish
    Service kind                : Complete Main
    Default                     : Yes
    Forced                      : Yes

    Audio #2
    ID                          : 3
    Format                      : E-AC-3
    Format/Info                 : Enhanced AC-3
    Commercial name             : Dolby Digital Plus
    Codec ID                    : A_EAC3
    Duration                    : 2 h 16 min
    Bit rate mode               : Constant
    Bit rate                    : 640 kb/s
    Channel(s)                  : 6 channels
    Channel layout              : L R C LFE Ls Rs
    Sampling rate               : 48.0 kHz
    Frame rate                  : 31.250 FPS (1536 SPF)
    Compression mode            : Lossy
    Stream size                 : 627 MiB (7%)
    Title                       : Español Latino EAC3 [CinemaniaHDD]
    Language                    : Spanish
    Service kind                : Complete Main
    Default                     : No
    Forced                      : No

    Audio #3
    ID                          : 4
    Format                      : E-AC-3 JOC
    Format/Info                 : Enhanced AC-3 with Joint Object Coding
    Commercial name             : Dolby Digital Plus with Dolby Atmos
    Codec ID                    : A_EAC3
    Duration                    : 2 h 16 min
    Bit rate mode               : Constant
    Bit rate                    : 768 kb/s
    Channel(s)                  : 6 channels
    Channel layout              : L R C LFE Ls Rs
    Sampling rate               : 48.0 kHz
    Frame rate                  : 31.250 FPS (1536 SPF)
    Compression mode            : Lossy
    Stream size                 : 752 MiB (9%)
    Title                       : Ingles [CinemaniaHDD]
    Language                    : English
    Service kind                : Complete Main
    Default                     : No
    Forced                      : No
    Complexity index            : 16
    Number of dynamic objects   : 15
    Bed channel count           : 1 channel
    Bed channel configuration   : LFE

    Text #1
    ID                          : 5
    Format                      : UTF-8
    Codec ID                    : S_TEXT/UTF8
    Codec ID/Info               : UTF-8 Plain Text
    Duration                    : 2 h 13 min
    Bit rate                    : 1 b/s
    Count of elements           : 39
    Stream size                 : 1.24 KiB (0%)
    Title                       : Forzados-SRT [CinemaniaHDD]
    Language                    : Spanish
    Default                     : Yes
    Forced                      : Yes

    Text #2
    ID                          : 6
    Format                      : UTF-8
    Codec ID                    : S_TEXT/UTF8
    Codec ID/Info               : UTF-8 Plain Text
    Duration                    : 2 h 14 min
    Bit rate                    : 70 b/s
    Count of elements           : 1768
    Stream size                 : 69.3 KiB (0%)
    Title                       : Español-SRT [CinemaniaHDD]
    Language                    : Spanish
    Default                     : No
    Forced                      : No

    Text #3
    ID                          : 7
    Format                      : UTF-8
    Codec ID                    : S_TEXT/UTF8
    Codec ID/Info               : UTF-8 Plain Text
    Duration                    : 2 h 7 min
    Bit rate                    : 76 b/s
    Count of elements           : 1847
    Stream size                 : 71.9 KiB (0%)
    Title                       : Ingles-SRT [CinemaniaHDD]
    Language                    : English
    Default                     : No
    Forced                      : No

  • Peso: 8.56 GiB

Sinopsis

Descargar Ruido de fondo (2022) NF WEB-DL 1080p Latino. El profesor Jack Gladney es un destacado experto en estudios sobre Hitler en una universidad de artes liberales del medio oeste de Estados Unidos. Babette, su entrañable y sarcástica esposa, comparte el mayor temor de su marido: la muerte. Cuando la pareja se encuentra cara a cara con un acontecimiento apocalíptico, deben coger a sus hijos y escapar de la histeria masiva que rodea la liberación de un producto químico tóxico. En su intento de escapar, toda la familia se enfrenta al caos de la muerte y la destrucción que se convierte en algo habitual en su afán por sobrevivir. Sin embargo, de alguna manera, las cosas mundanas y cotidianas son las más difíciles de afrontar. La cambiante realidad de la vida después del «Evento Tóxico Aéreo» saca a la luz agudas críticas al consumismo y al academicismo en la América de los años 80.

Ficha técnica

Video trailer de la película

Enlaces de descarga

Rip de Bluray

Descargar Ruido de fondo (2022) NF WEB-DL 1080p Latino




Aportes de DPeliculasHDmega la pass es:dpeliculashdmega.org Aportes de CinemaniaHD la pass es:cinemaniahdd.com
Guardado en : Ciencia ficción , Comedia , Drama , Netflix

Películas relacionadas

  • Hombre de familia (2000) REMUX 1080p Latino

    Hombre de familia (2000) REMUX 1080p Latino

    2000
    Hombre de familia (2000) REMUX 1080p Latino

    2h 1m 2000

    Descargar Hombre de familia (2000) REMUX 1080p Latino. Jack Campbell es un egocéntrico broker de Wall...

    Director: Robert Schroer

    Género: Comedia

    Actores: Wass Stevens

  • Anon (2018) REMUX 1080p Latino

    Anon (2018) REMUX 1080p Latino

    2018
    Anon (2018) REMUX 1080p Latino

    1h 40m 2018

    Descargar Anon (2018) REMUX 1080p Latino. Anon nos lleva hasta un futuro no muy lejano al estilo soviético,...

    Director: Sarah Campbell

    Género: Ciencia ficción

    Actores: Zion Lee

descargar Ruido de fondo (2022) NF WEB-DL 1080p Latino WEBDL 1080p gratis, Ruido de fondo (2022) NF WEB-DL 1080p Latino WEBDL mega 1 link, Ruido de fondo (2022) NF WEB-DL 1080p Latino WEBDL pelicula completa, descargar Ruido de fondo (2022) NF WEB-DL 1080p Latino WEBDL gratis en mega.

Ruido de fondo (2022) NF WEB-DL 1080p Latino pelicula full hd, Ruido de fondo (2022) NF WEB-DL 1080p Latino mega latino, Ruido de fondo (2022) NF WEB-DL 1080p Latino 4k latino, Ruido de fondo (2022) NF WEB-DL 1080p Latino pelicula completa, Ruido de fondo (2022) NF WEB-DL 1080p Latino descargar gratis, descargar Ruido de fondo (2022) NF WEB-DL 1080p Latino pelicula latino, Ruido de fondo (2022) NF WEB-DL 1080p Latino 1 link mega, Ruido de fondo (2022) NF WEB-DL 1080p Latino 1 link google drive, Ruido de fondo (2022) NF WEB-DL 1080p Latino hd 1080p latino.
Comentarios 0