Ruega por nosotros (2021) REMUX 1080p Latino

58 vistas
1 estrella2 estrellas3 estrellas4 estrellas5 estrellas (3 votos, promedio: 5,00 de 5)
Cargando...

Información de Ruega por nosotros (2021) REMUX 1080p Latino

Datos de la película

  • Calidad: Full 1080p
  • Audio: Español Latino AC3 5.1 BLURAY - Ingles DTS 5.1 BLURAY
  • Subtitulos: Español Latino PGS
  • Resolución: 1920x1080p
  • Formato: MKV
  • Codec: H.264
  • Encoder: Melkor | CinemaniaHDD
  • Mediainfo: Clic para Mostrar Datos Ver
  • Ruega Por Nosotros (2021) REMUX 1080p Latino.mkv
    Format                      : Matroska
    Format version              : Version 4
    File size                   : 20.6 GiB
    Duration                    : 1 h 39 min
    Overall bit rate mode       : Variable
    Overall bit rate            : 29.7 Mb/s
    Movie name                  : The Unholy (2021) CinemaniaHDD.Net
    Encoded date                : UTC 2021-06-13 16:04:25
    Writing application         : mkvmerge v56.1.0 ('My Friend') 64-bit
    Writing library             : libebml v1.4.2 + libmatroska v1.6.4
    Attachments                 : CINEMANIAHD.png

    Video
    ID                          : 1
    Format                      : AVC
    Format/Info                 : Advanced Video Codec
    Format profile              : High@L4.1
    Format settings             : CABAC / 2 Ref Frames
    Format settings, CABAC      : Yes
    Format settings, Reference  : 2 frames
    Format settings, GOP        : M=1, N=10
    Codec ID                    : V_MPEG4/ISO/AVC
    Duration                    : 1 h 39 min
    Bit rate mode               : Variable
    Bit rate                    : 26.9 Mb/s
    Width                       : 1 920 pixels
    Height                      : 1 080 pixels
    Display aspect ratio        : 16:9
    Frame rate mode             : Constant
    Frame rate                  : 23.976 (24000/1001) FPS
    Color space                 : YUV
    Chroma subsampling          : 4:2:0
    Bit depth                   : 8 bits
    Scan type                   : Progressive
    Bits/(Pixel*Frame)          : 0.540
    Stream size                 : 18.7 GiB (90%)
    Title                       : REMUX HD1080p [CinemaniaHDD]
    Default                     : Yes
    Forced                      : No

    Audio #1
    ID                          : 2
    Format                      : AC-3
    Format/Info                 : Audio Coding 3
    Commercial name             : Dolby Digital
    Codec ID                    : A_AC3
    Duration                    : 1 h 39 min
    Bit rate mode               : Constant
    Bit rate                    : 640 kb/s
    Channel(s)                  : 6 channels
    Channel layout              : L R C LFE Ls Rs
    Sampling rate               : 48.0 kHz
    Frame rate                  : 31.250 FPS (1536 SPF)
    Compression mode            : Lossy
    Stream size                 : 455 MiB (2%)
    Title                       : Español Latino [CinemaniaHDD]
    Language                    : Spanish
    Service kind                : Complete Main
    Default                     : Yes
    Forced                      : No

    Audio #2
    ID                          : 3
    Format                      : DTS XLL
    Format/Info                 : Digital Theater Systems
    Commercial name             : DTS-HD Master Audio
    Codec ID                    : A_DTS
    Duration                    : 1 h 39 min
    Bit rate mode               : Variable
    Bit rate                    : 2 183 kb/s
    Channel(s)                  : 6 channels
    Channel layout              : C L R Ls Rs LFE
    Sampling rate               : 48.0 kHz
    Frame rate                  : 93.750 FPS (512 SPF)
    Bit depth                   : 16 bits
    Compression mode            : Lossless
    Stream size                 : 1.52 GiB (7%)
    Title                       : Ingles [CinemaniaHDD]
    Language                    : English
    Default                     : No
    Forced                      : No

    Text #1
    ID                          : 4
    Format                      : PGS
    Muxing mode                 : zlib
    Codec ID                    : S_HDMV/PGS
    Codec ID/Info               : Picture based subtitle format used on BDs/HD-DVDs
    Duration                    : 1 h 36 min
    Bit rate                    : 225 b/s
    Count of elements           : 14
    Stream size                 : 159 KiB (0%)
    Title                       : Forzados-PGS [CinemaniaHDD]
    Language                    : Spanish
    Default                     : No
    Forced                      : No

    Text #2
    ID                          : 5
    Format                      : PGS
    Muxing mode                 : zlib
    Codec ID                    : S_HDMV/PGS
    Codec ID/Info               : Picture based subtitle format used on BDs/HD-DVDs
    Duration                    : 1 h 37 min
    Bit rate                    : 27.1 kb/s
    Count of elements           : 1931
    Stream size                 : 18.9 MiB (0%)
    Title                       : Español-PGS [CinemaniaHDD]
    Language                    : Spanish
    Default                     : No
    Forced                      : No

    Text #3
    ID                          : 6
    Format                      : UTF-8
    Codec ID                    : S_TEXT/UTF8
    Codec ID/Info               : UTF-8 Plain Text
    Duration                    : 1 h 31 min
    Bit rate                    : 0 b/s
    Count of elements           : 15
    Stream size                 : 479 Bytes (0%)
    Title                       : Forzados-SRT [CinemaniaHDD]
    Language                    : Spanish
    Default                     : Yes
    Forced                      : No

    Text #4
    ID                          : 7
    Format                      : UTF-8
    Codec ID                    : S_TEXT/UTF8
    Codec ID/Info               : UTF-8 Plain Text
    Duration                    : 1 h 37 min
    Bit rate                    : 45 b/s
    Count of elements           : 965
    Stream size                 : 32.6 KiB (0%)
    Title                       : Español-SRT [CinemaniaHDD]
    Language                    : Spanish
    Default                     : No
    Forced                      : No

    Menu
    00:00:00.000                : :Chapter 01
    00:02:45.082                : :Chapter 02
    00:07:05.050                : :Chapter 03
    00:11:54.714                : :Chapter 04
    00:17:48.025                : :Chapter 05
    00:23:42.421                : :Chapter 06
    00:29:03.617                : :Chapter 07
    00:36:45.036                : :Chapter 08
    00:43:14.050                : :Chapter 09
    00:49:55.117                : :Chapter 10
    00:57:07.841                : :Chapter 11
    01:01:48.872                : :Chapter 12
    01:09:04.640                : :Chapter 13
    01:15:15.010                : :Chapter 14
    01:23:37.471                : :Chapter 15
    01:30:03.398                : :Chapter 16

  • Peso: 20.6 GiB

Sinopsis

Descargar Ruega por nosotros (2021) REMUX 1080p Latino. Se centra en un periodista caído en desgracia que descubre una serie de aparentes milagros acaecidos en un pequeño pueblo de Nueva Inglaterra, aplicándolos para devolver su carrera al estrellato. Lo que desconoce es que estos milagros esconden una cara mucho más oscura de lo que él cree.

Nota: Disponible Solo Para Vip!!! 🙂

Ficha técnica

  • Titulo original: The Unholy
  • Fecha de lanzamiento: 31-03-2021 (United States of America)
  • Director: Evan Spiliotopoulos
  • Género: Remux, Terror
  • Puntuación: 5.0 3 votos
  • Duración:
    1h 39m

Video trailer de la película

Enlaces de descarga

Rip de Bluray

Descargar Ruega por nosotros (2021) REMUX 1080p Latino


Aportes de DPeliculasHDmega la pass es:dpeliculashdmega.org Aportes de CinemaniaHD la pass es:cinemaniahdd.com
Guardado en : Remux , Terror

Películas relacionadas

  • The Hatred (2017) WEB-DL 1080p Latino

    The Hatred (2017) WEB-DL 1080p Latino

    2017
    The Hatred (2017) WEB-DL 1080p Latino

    5.0 1h 34m 2017

    Cuatro mujeres jóvenes viajan a la nueva casa de campo de su profesor universitario para una escapada...

    Director: Michael G. Kehoe

    Género: Suspenso

    Actores: Tim DeZarn

  • La Ciudad de las Mentiras (2018) REMUX 1080p Latino

    La Ciudad de las Mentiras (2018) REMUX 1080p Latino

    2018
    La Ciudad de las Mentiras (2018) REMUX 1080p Latino

    5.0 1h 52m 2018

    Descargar La Ciudad de las Mentiras (2018) REMUX 1080p Latino. Narra la investigación de los asesinatos...

    Director: Brad Furman

    Género: Crimen

    Actores: Xander Berkeley

  • Valle de los Dioses (2019) REMUX 1080p Latino

    Valle de los Dioses (2019) REMUX 1080p Latino

    2019
    Valle de los Dioses (2019) REMUX 1080p Latino

    5.0 2h 11m 2019

    Descargar Valle de los Dioses (2019) REMUX 1080p Latino. La película entrelaza la sabiduría tradicional...

    Director: Lech Majewski

    Género: Drama

    Actores: Keir Dullea

Ruega por nosotros (2021) REMUX 1080p Latino pelicula full hd, Ruega por nosotros (2021) REMUX 1080p Latino mega latino, Ruega por nosotros (2021) REMUX 1080p Latino 4k latino, Ruega por nosotros (2021) REMUX 1080p Latino pelicula completa, Ruega por nosotros (2021) REMUX 1080p Latino descargar gratis, descargar Ruega por nosotros (2021) REMUX 1080p Latino pelicula latino, Ruega por nosotros (2021) REMUX 1080p Latino 1 link mega, Ruega por nosotros (2021) REMUX 1080p Latino 1 link google drive, Ruega por nosotros (2021) REMUX 1080p Latino hd 1080p latino.
Comentarios 0