×

¿Problemas para descargar con Mozilla, EDGE? Deshabilita la opción "Abrir vinculos en una pestaña nueva" tal como lo muestra ésta imagen.

Ruby Sparks: La Chica De Mis Sueños (2012) Full HD 1080p Latino

352 vistas

Información de Ruby Sparks: La Chica De Mis Sueños (2012) Full HD 1080p Latino

Datos de la película

  • Calidad: Full 1080p
  • Audio: Español Latino AC3 5.1 BLURAY - Ingles DTS 5.1 BLURAY
  • Subtitulos: Español Latino PGS - Ingles PGS
  • Resolución: 1920x1080p
  • Formato: MKV
  • Codec: H.264
  • Encoder: CinefiloCool
  • Mediainfo: Clic para Mostrar Datos Ver
  • Ruby Sparks La Chica De Mis Sueños (2012) Full HD 1080p Latino-CMHDD.mkv
    Format                      : Matroska
    Format version              : Version 4
    File size                   : 9.66 GiB
    Duration                    : 1 h 44 min
    Overall bit rate            : 13.3 Mb/s
    Movie name                  : Ruby Sparks (2012) CinemaniaHDD.Net
    Encoded date                : UTC 2021-02-15 22:53:13
    Writing application         : mkvmerge v51.0.0 ('I Wish') 64-bit
    Writing library             : libebml v1.4.0 + libmatroska v1.6.2
    Attachments                 : CINEMANIAHD.png

    Video
    ID                          : 1
    Format                      : AVC
    Format/Info                 : Advanced Video Codec
    Format profile              : High@L4.1
    Format settings             : CABAC / 4 Ref Frames
    Format settings, CABAC      : Yes
    Format settings, Reference  : 4 frames
    Codec ID                    : V_MPEG4/ISO/AVC
    Duration                    : 1 h 44 min
    Bit rate                    : 11.3 Mb/s
    Width                       : 1 920 pixels
    Height                      : 1 080 pixels
    Display aspect ratio        : 16:9
    Frame rate mode             : Constant
    Frame rate                  : 23.976 (24000/1001) FPS
    Color space                 : YUV
    Chroma subsampling          : 4:2:0
    Bit depth                   : 8 bits
    Scan type                   : Progressive
    Bits/(Pixel*Frame)          : 0.227
    Stream size                 : 8.21 GiB (85%)
    Title                       : Full HD1080p [CinemaniaHDD]
    Writing library             : x264 core 157 r2935 545de2f
    Encoding settings           : cabac=1 / ref=4 / deblock=1:0:0 / analyse=0x3:0x133 / me=tesa / subme=11 / psy=1 / psy_rd=1.00:0.00 / mixed_ref=1 / me_range=24 / chroma_me=1 / trellis=2 / 8x8dct=1 / cqm=0 / deadzone=21,11 / fast_pskip=0 / chroma_qp_offset=-2 / threads=24 / lookahead_threads=6 / sliced_threads=0 / nr=0 / decimate=1 / interlaced=0 / bluray_compat=0 / constrained_intra=0 / bframes=16 / b_pyramid=2 / b_adapt=2 / b_bias=0 / direct=3 / weightb=1 / open_gop=0 / weightp=2 / keyint=240 / keyint_min=24 / scenecut=40 / intra_refresh=0 / rc_lookahead=60 / rc=crf / mbtree=1 / crf=20.0 / qcomp=0.60 / qpmin=0 / qpmax=69 / qpstep=4 / vbv_maxrate=62500 / vbv_bufsize=78125 / crf_max=0.0 / nal_hrd=none / filler=0 / ip_ratio=1.40 / aq=1:1.00
    Default                     : Yes
    Forced                      : Yes
    Color range                 : Limited
    Color primaries             : BT.709
    Transfer characteristics    : BT.709
    Matrix coefficients         : BT.709

    Audio #1
    ID                          : 2
    ID in the original source m : 4354 (0x1102)
    Format                      : AC-3
    Format/Info                 : Audio Coding 3
    Commercial name             : Dolby Digital
    Codec ID                    : A_AC3
    Duration                    : 1 h 44 min
    Bit rate mode               : Constant
    Bit rate                    : 448 kb/s
    Channel(s)                  : 6 channels
    Channel layout              : L R C LFE Ls Rs
    Sampling rate               : 48.0 kHz
    Frame rate                  : 31.250 FPS (1536 SPF)
    Compression mode            : Lossy
    Stream size                 : 334 MiB (3%)
    Title                       : Español Latino [CinemaniaHDD]
    Language                    : Spanish
    Service kind                : Complete Main
    Default                     : Yes
    Forced                      : Yes
    Original source medium      : Blu-ray

    Audio #2
    ID                          : 3
    Format                      : DTS
    Format/Info                 : Digital Theater Systems
    Codec ID                    : A_DTS
    Duration                    : 1 h 44 min
    Bit rate mode               : Constant
    Bit rate                    : 1 509 kb/s
    Channel(s)                  : 6 channels
    Channel layout              : C L R Ls Rs LFE
    Sampling rate               : 48.0 kHz
    Frame rate                  : 93.750 FPS (512 SPF)
    Bit depth                   : 24 bits
    Compression mode            : Lossy
    Stream size                 : 1.10 GiB (11%)
    Title                       : Ingles [CinemaniaHDD]
    Language                    : English
    Default                     : No
    Forced                      : No

    Text #1
    ID                          : 4
    Format                      : PGS
    Muxing mode                 : zlib
    Codec ID                    : S_HDMV/PGS
    Codec ID/Info               : Picture based subtitle format used on BDs/HD-DVDs
    Duration                    : 46 min 27 s
    Bit rate                    : 577 b/s
    Count of elements           : 32
    Stream size                 : 196 KiB (0%)
    Title                       : Forzados-PGS [CinemaniaHDD]
    Language                    : Spanish
    Default                     : Yes
    Forced                      : Yes

    Text #2
    ID                          : 5
    ID in the original source m : 4609 (0x1201)
    Format                      : PGS
    Muxing mode                 : zlib
    Codec ID                    : S_HDMV/PGS
    Codec ID/Info               : Picture based subtitle format used on BDs/HD-DVDs
    Duration                    : 1 h 43 min
    Bit rate                    : 31.3 kb/s
    Count of elements           : 2694
    Stream size                 : 23.1 MiB (0%)
    Title                       : Español-PGS [CinemaniaHDD]
    Language                    : Spanish
    Default                     : No
    Forced                      : No
    Original source medium      : Blu-ray

    Text #3
    ID                          : 6
    ID in the original source m : 4608 (0x1200)
    Format                      : PGS
    Muxing mode                 : zlib
    Codec ID                    : S_HDMV/PGS
    Codec ID/Info               : Picture based subtitle format used on BDs/HD-DVDs
    Duration                    : 1 h 43 min
    Bit rate                    : 37.0 kb/s
    Count of elements           : 2944
    Stream size                 : 27.3 MiB (0%)
    Title                       : Ingles-PGS [CinemaniaHDD]
    Language                    : English
    Default                     : No
    Forced                      : No
    Original source medium      : Blu-ray

    Text #4
    ID                          : 7
    Format                      : UTF-8
    Codec ID                    : S_TEXT/UTF8
    Codec ID/Info               : UTF-8 Plain Text
    Duration                    : 1 h 24 min
    Bit rate                    : 0 b/s
    Count of elements           : 17
    Stream size                 : 346 Bytes (0%)
    Title                       : Forzados-SRT [CinemaniaHDD]
    Language                    : Spanish
    Default                     : No
    Forced                      : No

    Text #5
    ID                          : 8
    Format                      : UTF-8
    Codec ID                    : S_TEXT/UTF8
    Codec ID/Info               : UTF-8 Plain Text
    Duration                    : 1 h 38 min
    Bit rate                    : 59 b/s
    Count of elements           : 1345
    Stream size                 : 42.8 KiB (0%)
    Title                       : Español-SRT [CinemaniaHDD]
    Language                    : Spanish
    Default                     : No
    Forced                      : No

    Menu
    00:00:00.000                : en:Chapter 01
    00:06:06.699                : en:Chapter 02
    00:10:14.989                : en:Chapter 03
    00:13:31.227                : en:Chapter 04
    00:16:21.480                : en:Chapter 05
    00:20:16.840                : en:Chapter 06
    00:23:11.223                : en:Chapter 07
    00:28:19.531                : en:Chapter 08
    00:32:21.731                : en:Chapter 09
    00:35:40.805                : en:Chapter 10
    00:39:57.478                : en:Chapter 11
    00:43:04.540                : en:Chapter 12
    00:46:10.851                : en:Chapter 13
    00:51:42.265                : en:Chapter 14
    00:55:39.377                : en:Chapter 15
    00:58:41.726                : en:Chapter 16
    01:02:51.476                : en:Chapter 17
    01:07:18.492                : en:Chapter 18
    01:13:06.465                : en:Chapter 19
    01:18:41.591                : en:Chapter 20
    01:24:02.996                : en:Chapter 21
    01:32:48.229                : en:Chapter 22
    01:37:07.655                : en:Chapter 23
    01:39:40.474                : en:Chapter 24

  • Peso: 9.66 GiB

Sinopsis

Descargar Ruby Sparks: La Chica De Mis Sueños (2012) Full HD 1080p Latino. Los directores de «Little Miss Sunshine» relatan la historia de un escritor que se enamora de uno de sus personajes femeninos. Calvin Weir-Fields (Paul Dano) había sido un niño-prodigio, cuya primera novela había tenido un gran éxito. Pero, desde entonces, sufre un sistemático bloqueo creativo agravado por su deprimente vida amorosa. Finalmente, consigue crear un personaje femenino, Ruby Sparks (Zoe Kazan), que acaba materializándose y compartiendo la vida con él.

Ficha técnica

Video trailer de la película

Enlaces de descarga

Rip de Bluray

Descargar Ruby Sparks: La Chica De Mis Sueños (2012) Full HD 1080p Latino




Aportes de DPeliculasHDmega la pass es:dpeliculashdmega.org Aportes de CinemaniaHD la pass es:cinemaniahdd.com

Películas relacionadas

  • Corazón de tinta (2008) Full HD 1080p Latino

    Corazón de tinta (2008) Full HD 1080p Latino

    2008
    Corazón de tinta (2008) Full HD 1080p Latino

    1h 46m 2008

    Descargar Corazón de tinta (2008) Full HD 1080p Latino. Mortimer “Mo” Folchart y su hija de 12 años,...

    Director: Sharon Mansfield

    Género: Aventura

    Actores: Terry Cavanagh

  • Corazón de tinta (2008) REMUX 1080p Latino

    Corazón de tinta (2008) REMUX 1080p Latino

    2008
    Corazón de tinta (2008) REMUX 1080p Latino

    1h 46m 2008

    Descargar Corazón de tinta (2008) REMUX 1080p Latino. Mortimer “Mo” Folchart y su hija de 12 años,...

    Director: Sharon Mansfield

    Género: Aventura

    Actores: Tereza Srbová

  • Juego de espías (2001) Full HD 1080p Latino

    Juego de espías (2001) Full HD 1080p Latino

    2001
    Juego de espías (2001) Full HD 1080p Latino

    2h 6m 2001

    Descargar Juego de espías (2001) Full HD 1080p Latino. Corre el año 1991, y al veterano agente de la...

    Director: Tony Scott

    Género: Acción

    Actores: Zsolt Zágoni

  • Hombre de familia (2000) REMUX 1080p Latino

    Hombre de familia (2000) REMUX 1080p Latino

    2000
    Hombre de familia (2000) REMUX 1080p Latino

    2h 1m 2000

    Descargar Hombre de familia (2000) REMUX 1080p Latino. Jack Campbell es un egocéntrico broker de Wall...

    Director: Robert Schroer

    Género: Comedia

    Actores: Wass Stevens

descargar Ruby Sparks: La Chica De Mis Sueños (2012) Full HD 1080p Latino Full 1080p 1080p gratis, Ruby Sparks: La Chica De Mis Sueños (2012) Full HD 1080p Latino Full 1080p mega 1 link, Ruby Sparks: La Chica De Mis Sueños (2012) Full HD 1080p Latino Full 1080p pelicula completa, descargar Ruby Sparks: La Chica De Mis Sueños (2012) Full HD 1080p Latino Full 1080p gratis en mega.

Ruby Sparks: La Chica De Mis Sueños (2012) Full HD 1080p Latino pelicula full hd, Ruby Sparks: La Chica De Mis Sueños (2012) Full HD 1080p Latino mega latino, Ruby Sparks: La Chica De Mis Sueños (2012) Full HD 1080p Latino 4k latino, Ruby Sparks: La Chica De Mis Sueños (2012) Full HD 1080p Latino pelicula completa, Ruby Sparks: La Chica De Mis Sueños (2012) Full HD 1080p Latino descargar gratis, descargar Ruby Sparks: La Chica De Mis Sueños (2012) Full HD 1080p Latino pelicula latino, Ruby Sparks: La Chica De Mis Sueños (2012) Full HD 1080p Latino 1 link mega, Ruby Sparks: La Chica De Mis Sueños (2012) Full HD 1080p Latino 1 link google drive, Ruby Sparks: La Chica De Mis Sueños (2012) Full HD 1080p Latino hd 1080p latino.
Comentarios 0