×

¿Problemas para descargar con Mozilla, EDGE? Deshabilita la opción "Abrir vinculos en una pestaña nueva" tal como lo muestra ésta imagen.

Rubius X (2022) AMZN WEB-DL 1080p Español Castellano

703 vistas

Información de Rubius X (2022) AMZN WEB-DL 1080p Español Castellano

Datos de la película

  • Calidad: 1080p
  • Audio: Se especifica abajo de la Sinopsis
  • Subtitulos: Español Latino SRT
  • Resolución: 1920x872
  • Formato: MKV
  • Codec: H.264
  • Encoder: cinemaniahdd
  • Mediainfo: Clic para Mostrar Datos Ver
  • Rubius X (2022) AMZN WEB-DL 1080p Español Castellano [CNMNHDD].mkv
    Format                      : Matroska
    Format version              : Version 4
    File size                   : 4.49 GiB
    Duration                    : 1 h 16 min
    Overall bit rate            : 8 393 kb/s
    Movie name                  : Rubius X [1080p] - CinemaniaHDD.Net
    Encoded date                : UTC 2022-07-21 23:29:47
    Writing application         : mkvmerge v56.1.0 ('My Friend') 64-bit
    Writing library             : libebml v1.4.2 + libmatroska v1.6.4

    Video
    ID                          : 1
    Format                      : AVC
    Format/Info                 : Advanced Video Codec
    Format profile              : High@L4
    Format settings             : CABAC / 4 Ref Frames
    Format settings, CABAC      : Yes
    Format settings, Reference  : 4 frames
    Codec ID                    : V_MPEG4/ISO/AVC
    Duration                    : 1 h 16 min
    Bit rate mode               : Constant
    Bit rate                    : 8 007 kb/s
    Nominal bit rate            : 10 000 kb/s
    Width                       : 1 920 pixels
    Height                      : 872 pixels
    Display aspect ratio        : 2.2:1
    Frame rate mode             : Constant
    Frame rate                  : 25.000 FPS
    Color space                 : YUV
    Chroma subsampling          : 4:2:0
    Bit depth                   : 8 bits
    Scan type                   : Progressive
    Bits/(Pixel*Frame)          : 0.191
    Stream size                 : 4.28 GiB (95%)
    Title                       : CinemaniaHDD.Net
    Default                     : Yes
    Forced                      : No
    Color range                 : Limited
    Color primaries             : BT.709
    Transfer characteristics    : BT.709
    Matrix coefficients         : BT.709

    Audio
    ID                          : 2
    Format                      : AC-3
    Format/Info                 : Audio Coding 3
    Commercial name             : Dolby Digital
    Codec ID                    : A_AC3
    Duration                    : 1 h 16 min
    Bit rate mode               : Constant
    Bit rate                    : 384 kb/s
    Channel(s)                  : 2 channels
    Channel layout              : L R
    Sampling rate               : 48.0 kHz
    Frame rate                  : 31.250 FPS (1536 SPF)
    Compression mode            : Lossy
    Stream size                 : 210 MiB (5%)
    Title                       : Castellano [CinemaniaHDD]
    Language                    : Spanish
    Service kind                : Complete Main
    Default                     : Yes
    Forced                      : No

    Text #1
    ID                          : 3
    Format                      : UTF-8
    Codec ID                    : S_TEXT/UTF8
    Codec ID/Info               : UTF-8 Plain Text
    Duration                    : 46 min 41 s
    Bit rate                    : 6 b/s
    Count of elements           : 70
    Stream size                 : 2.28 KiB (0%)
    Title                       : Español Latino (SDH) [CinemaniaHDD]
    Language                    : Spanish
    Default                     : No
    Forced                      : No

    Text #2
    ID                          : 4
    Format                      : UTF-8
    Codec ID                    : S_TEXT/UTF8
    Codec ID/Info               : UTF-8 Plain Text
    Duration                    : 46 min 41 s
    Bit rate                    : 6 b/s
    Count of elements           : 70
    Stream size                 : 2.28 KiB (0%)
    Title                       : Castellano (SDH) [CinemaniaHDD]
    Language                    : Spanish
    Default                     : No
    Forced                      : No

     

  • Peso: 4.49 GiB

Sinopsis

Hace ya 10 años del primer vídeo publicado por el Rubius en YouTube. Con motivo de esta celebración llega “Rubius X”, el documental sobre uno de los creadores de contenido españoles más reconocidos. Conoceremos la historia de la revolución que causó el nacimiento de YouTube con una de las figuras pioneras en el sector y el influencer más popular en España e Hispanoamérica con más de 40 millones de seguidores.

Ficha técnica

  • Titulo original: Rubius X
  • Fecha de lanzamiento: 21-07-2022 (Spain)
  • Género: Documental

Video trailer de la película

Enlaces de descarga

Rip de Bluray

Descargar Rubius X (2022) AMZN WEB-DL 1080p Español Castellano




Aportes de DPeliculasHDmega la pass es:dpeliculashdmega.org Aportes de CinemaniaHD la pass es:cinemaniahdd.com
Guardado en : Documental

Películas relacionadas

  • WWE Evil (2022) Primera Temporada PCOK WEB-DL 1080p Latino

    WWE Evil (2022) Primera Temporada PCOK WEB-DL 1080p Latino

    2022
    WWE Evil (2022) Primera Temporada PCOK WEB-DL 1080p Latino

    0h 45m 2022

    Una "exposición psicológica" de las mentes de los antagonistas más diabólicos en la historia de la...

    Director: John Cena 約翰·希南 江西男,趙喜娜

    Género: Documental

    Actores: John Cena

  • Audrey (2020) HD 1080p Latino

    Audrey (2020) HD 1080p Latino

    2020
    Audrey (2020) HD 1080p Latino

    1h 30m 2020

    Descargar Audrey (2020) HD 1080p Latino. Documental sobre la icónica actriz Audrey Hepburn, una de las...

    Director: Helena Coan

    Género: Documental

    Actores: Sean Hepburn Ferrer

  • Audrey (2020) PLACEBO Full HD 1080p Latino

    Audrey (2020) PLACEBO Full HD 1080p Latino

    2020
    Audrey (2020) PLACEBO Full HD 1080p Latino

    1h 30m 2020

    Descargar Audrey (2020) PLACEBO Full HD 1080p Latino. Documental sobre la icónica actriz Audrey Hepburn,...

    Director: Helena Coan

    Género: Documental

    Actores: Sean Hepburn Ferrer

  • Audrey (2020) REMUX 1080p Latino

    Audrey (2020) REMUX 1080p Latino

    2020
    Audrey (2020) REMUX 1080p Latino

    1h 30m 2020

    Descargar Audrey (2020) REMUX 1080p Latino. Documental sobre la icónica actriz Audrey Hepburn, una de...

    Director: Helena Coan

    Género: Documental

    Actores: Sean Hepburn Ferrer

descargar Rubius X (2022) AMZN WEB-DL 1080p Español Castellano 1080p 1080p gratis, Rubius X (2022) AMZN WEB-DL 1080p Español Castellano 1080p mega 1 link, Rubius X (2022) AMZN WEB-DL 1080p Español Castellano 1080p pelicula completa, descargar Rubius X (2022) AMZN WEB-DL 1080p Español Castellano 1080p gratis en mega.

Rubius X (2022) AMZN WEB-DL 1080p Español Castellano pelicula full hd, Rubius X (2022) AMZN WEB-DL 1080p Español Castellano mega latino, Rubius X (2022) AMZN WEB-DL 1080p Español Castellano 4k latino, Rubius X (2022) AMZN WEB-DL 1080p Español Castellano pelicula completa, Rubius X (2022) AMZN WEB-DL 1080p Español Castellano descargar gratis, descargar Rubius X (2022) AMZN WEB-DL 1080p Español Castellano pelicula latino, Rubius X (2022) AMZN WEB-DL 1080p Español Castellano 1 link mega, Rubius X (2022) AMZN WEB-DL 1080p Español Castellano 1 link google drive, Rubius X (2022) AMZN WEB-DL 1080p Español Castellano hd 1080p latino.
Comentarios 0