×

¿Problemas para descargar con Mozilla, EDGE? Deshabilita la opción "Abrir vinculos en una pestaña nueva" tal como lo muestra ésta imagen.

Royal New Years Eve (2017) AMZN WEB-DL 1080p Latino

104 vistas

Información de Royal New Years Eve (2017) AMZN WEB-DL 1080p Latino

Datos de la película

  • Calidad: 1080p
  • Audio: Español Latino AC3 2.0 WEB-DL - Ingles AC3 2.0 WEB-DL
  • Subtitulos: Español Latino SRT
  • Resolución: 1920x1080
  • Formato: MKV
  • Codec: H.264
  • Encoder: cinemaniahdd
  • Mediainfo: Clic para Mostrar Datos Ver
  • Royal New Years Eve (2017) AMZN WEB-DL 1080p Latino [CNMNHDD].mkv
    Format                      : Matroska
    Format version              : Version 4
    File size                   : 5.83 GiB
    Duration                    : 1 h 26 min
    Overall bit rate            : 9 670 kb/s
    Movie name                  : Royal New Years Eve (2017) - CinemaniaHDD.Net
    Encoded date                : UTC 2021-11-01 23:23:40
    Writing application         : mkvmerge v59.0.0 ('Shining Star') 64-bit
    Writing library             : libebml v1.4.2 + libmatroska v1.6.4

    Video
    ID                          : 1
    Format                      : AVC
    Format/Info                 : Advanced Video Codec
    Format profile              : High@L4
    Format settings             : CABAC / 4 Ref Frames
    Format settings, CABAC      : Yes
    Format settings, Reference  : 4 frames
    Codec ID                    : V_MPEG4/ISO/AVC
    Duration                    : 1 h 26 min
    Bit rate mode               : Constant
    Bit rate                    : 9 220 kb/s
    Nominal bit rate            : 10 000 kb/s
    Width                       : 1 920 pixels
    Height                      : 1 080 pixels
    Display aspect ratio        : 16:9
    Frame rate mode             : Constant
    Frame rate                  : 23.976 (24000/1001) FPS
    Color space                 : YUV
    Chroma subsampling          : 4:2:0
    Bit depth                   : 8 bits
    Scan type                   : Progressive
    Bits/(Pixel*Frame)          : 0.185
    Stream size                 : 5.56 GiB (95%)
    Title                       : CinemaniaHDD
    Default                     : Yes
    Forced                      : No
    Color range                 : Limited
    Color primaries             : BT.709
    Transfer characteristics    : BT.709
    Matrix coefficients         : BT.709

    Audio #1
    ID                          : 2
    Format                      : E-AC-3
    Format/Info                 : Enhanced AC-3
    Commercial name             : Dolby Digital Plus
    Codec ID                    : A_EAC3
    Duration                    : 1 h 26 min
    Bit rate mode               : Constant
    Bit rate                    : 224 kb/s
    Channel(s)                  : 2 channels
    Channel layout              : L R
    Sampling rate               : 48.0 kHz
    Frame rate                  : 31.250 FPS (1536 SPF)
    Compression mode            : Lossy
    Stream size                 : 138 MiB (2%)
    Title                       : Español latino [CinemaniaHDD]
    Language                    : Spanish
    Service kind                : Complete Main
    Default                     : Yes
    Forced                      : No

    Audio #2
    ID                          : 3
    Format                      : E-AC-3
    Format/Info                 : Enhanced AC-3
    Commercial name             : Dolby Digital Plus
    Codec ID                    : A_EAC3
    Duration                    : 1 h 26 min
    Bit rate mode               : Constant
    Bit rate                    : 224 kb/s
    Channel(s)                  : 2 channels
    Channel layout              : L R
    Sampling rate               : 48.0 kHz
    Frame rate                  : 31.250 FPS (1536 SPF)
    Compression mode            : Lossy
    Stream size                 : 138 MiB (2%)
    Title                       : Inglés [CinemaniaHDD]
    Language                    : English
    Service kind                : Complete Main
    Default                     : No
    Forced                      : No

    Text
    ID                          : 4
    Format                      : UTF-8
    Codec ID                    : S_TEXT/UTF8
    Codec ID/Info               : UTF-8 Plain Text
    Duration                    : 1 h 25 min
    Bit rate                    : 83 b/s
    Count of elements           : 1459
    Stream size                 : 51.9 KiB (0%)
    Title                       : Español latino [CinemaniaHDD]
    Language                    : Spanish
    Default                     : No
    Forced                      : No

     

  • Peso: 5.83 GiB

Sinopsis

Una aspirante a diseñadora de moda se enamora del posible prometido de su cliente , el príncipe Jeffrey.

Ficha técnica

Video trailer de la película

Enlaces de descarga

Rip de Bluray

Descargar Royal New Years Eve (2017) AMZN WEB-DL 1080p Latino




Aportes de DPeliculasHDmega la pass es:dpeliculashdmega.org Aportes de CinemaniaHD la pass es:cinemaniahdd.com
Guardado en : Comedia , Película de TV , Romance

Películas relacionadas

descargar Royal New Years Eve (2017) AMZN WEB-DL 1080p Latino 1080p 1080p gratis, Royal New Years Eve (2017) AMZN WEB-DL 1080p Latino 1080p mega 1 link, Royal New Years Eve (2017) AMZN WEB-DL 1080p Latino 1080p pelicula completa, descargar Royal New Years Eve (2017) AMZN WEB-DL 1080p Latino 1080p gratis en mega.

Royal New Years Eve (2017) AMZN WEB-DL 1080p Latino pelicula full hd, Royal New Years Eve (2017) AMZN WEB-DL 1080p Latino mega latino, Royal New Years Eve (2017) AMZN WEB-DL 1080p Latino 4k latino, Royal New Years Eve (2017) AMZN WEB-DL 1080p Latino pelicula completa, Royal New Years Eve (2017) AMZN WEB-DL 1080p Latino descargar gratis, descargar Royal New Years Eve (2017) AMZN WEB-DL 1080p Latino pelicula latino, Royal New Years Eve (2017) AMZN WEB-DL 1080p Latino 1 link mega, Royal New Years Eve (2017) AMZN WEB-DL 1080p Latino 1 link google drive, Royal New Years Eve (2017) AMZN WEB-DL 1080p Latino hd 1080p latino.
Comentarios 0