×

¿Problemas para descargar con Mozilla, EDGE? Deshabilita la opción "Abrir vinculos en una pestaña nueva" tal como lo muestra ésta imagen.

Rough Night (2017) REMUX 4K HDR Latino – CMHDD

176 vistas

Información de Rough Night (2017) REMUX 4K HDR Latino – CMHDD

Datos de la película

  • Calidad: 4K HDR
  • Audio: Español Latino AC3 5.1 BLURAY - Ingles AC3 5.1 BLURAY
  • Subtitulos: Español Latino PGS
  • Resolución: 3840x2160p
  • Formato: MKV
  • Codec: H.264
  • Encoder: Dracarys
  • Mediainfo: Clic para Mostrar Datos Ver
  • Format                      : Matroska
    Format version              : Version 4
    File size                   : 41.8 GiB
    Duration                    : 1 h 40 min
    Overall bit rate mode       : Variable
    Overall bit rate            : 59.3 Mb/s
    Movie name                  : Rough Night (2017) REMUX 4K HDR Latino - CMHDD
    Encoded date                : UTC 2023-03-08 22:58:20
    Writing application         : mkvmerge v47.0.0 ('Black Flag') 64-bit
    Writing library             : libebml v1.3.10 + libmatroska v1.5.2
    Cover                       : Yes
    Attachments                 : cover.jpg

    Video
    ID                          : 1
    ID in the original source m : 4113 (0x1011)
    Format                      : HEVC
    Format/Info                 : High Efficiency Video Coding
    Format profile              : Main 10@L5.1@High
    HDR format                  : SMPTE ST 2086, HDR10 compatible
    Codec ID                    : V_MPEGH/ISO/HEVC
    Duration                    : 1 h 40 min
    Bit rate                    : 53.6 Mb/s
    Width                       : 3 840 pixels
    Height                      : 2 160 pixels
    Display aspect ratio        : 16:9
    Frame rate mode             : Constant
    Frame rate                  : 23.976 (24000/1001) FPS
    Color space                 : YUV
    Chroma subsampling          : 4:2:0 (Type 2)
    Bit depth                   : 10 bits
    Bits/(Pixel*Frame)          : 0.270
    Stream size                 : 37.8 GiB (90%)
    Default                     : Yes
    Forced                      : No
    Color range                 : Limited
    Color primaries             : BT.2020
    Transfer characteristics    : PQ
    Matrix coefficients         : BT.2020 non-constant
    Mastering display color pri : Display P3
    Mastering display luminance : min: 0.0050 cd/m2, max: 4000 cd/m2
    Maximum Content Light Level : 10000 cd/m2
    Maximum Frame-Average Light : 481 cd/m2
    Original source medium      : Blu-ray

    Audio #1
    ID                          : 2
    ID in the original source m : 4352 (0x1100)
    Format                      : MLP FBA 16-ch
    Format/Info                 : Meridian Lossless Packing FBA with 16-channel presentation
    Commercial name             : Dolby TrueHD with Dolby Atmos
    Codec ID                    : A_TRUEHD
    Duration                    : 1 h 40 min
    Bit rate mode               : Variable
    Bit rate                    : 4 336 kb/s
    Maximum bit rate            : 7 836 kb/s
    Channel(s)                  : 8 channels
    Channel layout              : L R C LFE Ls Rs Lb Rb
    Sampling rate               : 48.0 kHz
    Frame rate                  : 1 200.000 FPS (40 SPF)
    Compression mode            : Lossless
    Stream size                 : 3.05 GiB (7%)
    Language                    : English
    Default                     : No
    Forced                      : No
    Original source medium      : Blu-ray
    Number of dynamic objects   : 11
    Bed channel count           : 1 channel
    Bed channel configuration   : LFE

    Audio #2
    ID                          : 3
    ID in the original source m : 4352 (0x1100)
    Format                      : AC-3
    Format/Info                 : Audio Coding 3
    Commercial name             : Dolby Digital
    Codec ID                    : A_AC3
    Duration                    : 1 h 40 min
    Bit rate mode               : Constant
    Bit rate                    : 640 kb/s
    Channel(s)                  : 6 channels
    Channel layout              : L R C LFE Ls Rs
    Sampling rate               : 48.0 kHz
    Frame rate                  : 31.250 FPS (1536 SPF)
    Compression mode            : Lossy
    Stream size                 : 462 MiB (1%)
    Language                    : English
    Service kind                : Complete Main
    Default                     : No
    Forced                      : No
    Original source medium      : Blu-ray

    Audio #3
    ID                          : 4
    ID in the original source m : 4355 (0x1103)
    Format                      : AC-3
    Format/Info                 : Audio Coding 3
    Commercial name             : Dolby Digital
    Codec ID                    : A_AC3
    Duration                    : 1 h 40 min
    Bit rate mode               : Constant
    Bit rate                    : 640 kb/s
    Channel(s)                  : 6 channels
    Channel layout              : L R C LFE Ls Rs
    Sampling rate               : 48.0 kHz
    Frame rate                  : 31.250 FPS (1536 SPF)
    Compression mode            : Lossy
    Stream size                 : 462 MiB (1%)
    Language                    : Spanish
    Service kind                : Complete Main
    Default                     : Yes
    Forced                      : No
    Original source medium      : Blu-ray

    Text
    ID                          : 5
    ID in the original source m : 4771 (0x12A3)
    Format                      : PGS
    Muxing mode                 : zlib
    Codec ID                    : S_HDMV/PGS
    Codec ID/Info               : Picture based subtitle format used on BDs/HD-DVDs
    Duration                    : 1 h 39 min
    Bit rate                    : 55.2 kb/s
    Frame rate                  : 0.572 FPS
    Count of elements           : 3423
    Stream size                 : 39.3 MiB (0%)
    Language                    : Spanish
    Default                     : No
    Forced                      : No
    Original source medium      : Blu-ray

    Menu
    00:00:00.000                : en:Capítulo 01
    00:04:44.325                : en:Capítulo 02
    00:08:05.276                : en:Capítulo 03
    00:15:19.209                : en:Capítulo 04
    00:25:46.294                : en:Capítulo 05
    00:34:27.023                : en:Capítulo 06
    00:39:51.263                : en:Capítulo 07
    00:43:11.088                : en:Capítulo 08
    00:46:26.617                : en:Capítulo 09
    00:49:09.529                : en:Capítulo 10
    00:53:44.179                : en:Capítulo 11
    00:59:37.657                : en:Capítulo 12
    01:02:53.936                : en:Capítulo 13
    01:11:56.645                : en:Capítulo 14
    01:22:55.679                : en:Capítulo 15
    01:30:58.327                : en:Capítulo 16

  • Peso: 41.8 GiB

Sinopsis

Cinco amigas alquilan una casa frente a la playa de Miami para celebrar una despedida de soltera, pero la fiesta llega demasiado lejos y el stripper contratado acaba muerto.

Ficha técnica

Video trailer de la película

Enlaces de descarga

Rip de Bluray

Descargar Rough Night (2017) REMUX 4K HDR Latino – CMHDD


Aportes de DPeliculasHDmega la pass es:dpeliculashdmega.org Aportes de CinemaniaHD la pass es:cinemaniahdd.com Aportes recientes:cinemaniahdd.net
Guardado en : Comedia , Drama

Películas relacionadas

descargar Rough Night (2017) REMUX 4K HDR Latino – CMHDD 4K HDR 1080p gratis, Rough Night (2017) REMUX 4K HDR Latino – CMHDD 4K HDR mega 1 link, Rough Night (2017) REMUX 4K HDR Latino – CMHDD 4K HDR pelicula completa, descargar Rough Night (2017) REMUX 4K HDR Latino – CMHDD 4K HDR gratis en mega.

Rough Night (2017) REMUX 4K HDR Latino – CMHDD pelicula full hd, Rough Night (2017) REMUX 4K HDR Latino – CMHDD mega latino, Rough Night (2017) REMUX 4K HDR Latino – CMHDD 4k latino, Rough Night (2017) REMUX 4K HDR Latino – CMHDD pelicula completa, Rough Night (2017) REMUX 4K HDR Latino – CMHDD descargar gratis, descargar Rough Night (2017) REMUX 4K HDR Latino – CMHDD pelicula latino, Rough Night (2017) REMUX 4K HDR Latino – CMHDD 1 link mega, Rough Night (2017) REMUX 4K HDR Latino – CMHDD 1 link google drive, Rough Night (2017) REMUX 4K HDR Latino – CMHDD hd 1080p latino.
Comentarios 0