×

¿Problemas para descargar con Mozilla, EDGE? Deshabilita la opción "Abrir vinculos en una pestaña nueva" tal como lo muestra ésta imagen.

El bebé de Rosemary (1968) «Criterion Collection» REMUX 1080p Latino

364 vistas

Información de El bebé de Rosemary (1968) «Criterion Collection» REMUX 1080p Latino

Datos de la película

  • Calidad: Full 1080p
  • Audio: Se especifica abajo de la Sinopsis
  • Subtitulos: Español Latino SRT- FORZADOS SRT
  • Resolución: 1920x1080p
  • Formato: MKV
  • Codec: H.264
  • Encoder: CinefiloCool
  • Mediainfo: Clic para Mostrar Datos Ver
  • El Bebe De Rosemary CC (1968) REMUX 1080p Latino-CMHDD.mkv
    Format                      : Matroska
    Format version              : Version 4
    File size                   : 24.7 GiB
    Duration                    : 2 h 16 min
    Overall bit rate mode       : Variable
    Overall bit rate            : 25.8 Mb/s
    Movie name                  : Rosemary’s Baby (1968) CinemaniaHDD.Net
    Encoded date                : UTC 2022-04-25 03:20:09
    Writing application         : mkvmerge v56.1.0 ('My Friend') 64-bit
    Writing library             : libebml v1.4.2 + libmatroska v1.6.4
    Attachments                 : CINEMANIAHD.png

    Video
    ID                          : 1
    ID in the original source m : 4113 (0x1011)
    Format                      : AVC
    Format/Info                 : Advanced Video Codec
    Format profile              : High@L4.1
    Format settings             : CABAC / 4 Ref Frames
    Format settings, CABAC      : Yes
    Format settings, Reference  : 4 frames
    Codec ID                    : V_MPEG4/ISO/AVC
    Duration                    : 2 h 16 min
    Bit rate mode               : Variable
    Bit rate                    : 23.9 Mb/s
    Maximum bit rate            : 37.0 Mb/s
    Width                       : 1 920 pixels
    Height                      : 1 080 pixels
    Display aspect ratio        : 16:9
    Frame rate mode             : Constant
    Frame rate                  : 23.976 (24000/1001) FPS
    Color space                 : YUV
    Chroma subsampling          : 4:2:0
    Bit depth                   : 8 bits
    Scan type                   : Progressive
    Bits/(Pixel*Frame)          : 0.481
    Stream size                 : 22.9 GiB (93%)
    Title                       : REMUX HD1080p [CinemaniaHDD]
    Default                     : Yes
    Forced                      : Yes
    Original source medium      : Blu-ray

    Audio #1
    ID                          : 2
    Format                      : AC-3
    Format/Info                 : Audio Coding 3
    Commercial name             : Dolby Digital
    Codec ID                    : A_AC3
    Duration                    : 2 h 16 min
    Bit rate mode               : Constant
    Bit rate                    : 256 kb/s
    Channel(s)                  : 2 channels
    Channel layout              : L R
    Sampling rate               : 48.0 kHz
    Frame rate                  : 31.250 FPS (1536 SPF)
    Compression mode            : Lossy
    Stream size                 : 251 MiB (1%)
    Title                       : Español Latino Dub ORG [CinemaniaHDD]
    Language                    : Spanish
    Service kind                : Complete Main
    Default                     : No
    Forced                      : No

    Audio #2
    ID                          : 3
    Format                      : AC-3
    Format/Info                 : Audio Coding 3
    Commercial name             : Dolby Digital
    Codec ID                    : A_AC3
    Duration                    : 2 h 16 min
    Bit rate mode               : Constant
    Bit rate                    : 256 kb/s
    Channel(s)                  : 2 channels
    Channel layout              : L R
    Sampling rate               : 48.0 kHz
    Frame rate                  : 31.250 FPS (1536 SPF)
    Compression mode            : Lossy
    Stream size                 : 251 MiB (1%)
    Title                       : Español Latino ReDub AC3 [CinemaniaHDD]
    Language                    : Spanish
    Service kind                : Complete Main
    Default                     : Yes
    Forced                      : Yes

    Audio #3
    ID                          : 4
    Format                      : E-AC-3
    Format/Info                 : Enhanced AC-3
    Commercial name             : Dolby Digital Plus
    Codec ID                    : A_EAC3
    Duration                    : 2 h 16 min
    Bit rate mode               : Constant
    Bit rate                    : 224 kb/s
    Channel(s)                  : 2 channels
    Channel layout              : L R
    Sampling rate               : 48.0 kHz
    Frame rate                  : 31.250 FPS (1536 SPF)
    Compression mode            : Lossy
    Stream size                 : 219 MiB (1%)
    Title                       : Español Latino ReDub EAC3 [CinemaniaHDD]
    Language                    : Spanish
    Service kind                : Complete Main
    Default                     : No
    Forced                      : No

    Audio #4
    ID                          : 5
    ID in the original source m : 4352 (0x1100)
    Format                      : PCM
    Format settings             : Little / Signed
    Codec ID                    : A_PCM/INT/LIT
    Duration                    : 2 h 16 min
    Bit rate mode               : Constant
    Bit rate                    : 1 152 kb/s
    Channel(s)                  : 1 channel
    Sampling rate               : 48.0 kHz
    Frame rate                  : 200.000 FPS (240 SPF)
    Bit depth                   : 24 bits
    Stream size                 : 1.10 GiB (4%)
    Title                       : Ingles [CinemaniaHDD]
    Language                    : English
    Default                     : No
    Forced                      : No
    Original source medium      : Blu-ray

    Text #1
    ID                          : 6
    Format                      : UTF-8
    Codec ID                    : S_TEXT/UTF8
    Codec ID/Info               : UTF-8 Plain Text
    Duration                    : 1 h 40 min
    Bit rate                    : 0 b/s
    Count of elements           : 15
    Stream size                 : 490 Bytes (0%)
    Title                       : Forzados-SRT [CinemaniaHDD]
    Language                    : Spanish
    Default                     : Yes
    Forced                      : Yes

    Text #2
    ID                          : 7
    Format                      : UTF-8
    Codec ID                    : S_TEXT/UTF8
    Codec ID/Info               : UTF-8 Plain Text
    Duration                    : 2 h 12 min
    Bit rate                    : 59 b/s
    Count of elements           : 1371
    Stream size                 : 57.2 KiB (0%)
    Title                       : Español-SRT [CinemaniaHDD]
    Language                    : Spanish
    Default                     : No
    Forced                      : No

    Text #3
    ID                          : 8
    ID in the original source m : 4608 (0x1200)
    Format                      : PGS
    Muxing mode                 : zlib
    Codec ID                    : S_HDMV/PGS
    Codec ID/Info               : Picture based subtitle format used on BDs/HD-DVDs
    Duration                    : 2 h 16 min
    Bit rate                    : 62.9 kb/s
    Count of elements           : 3710
    Stream size                 : 61.3 MiB (0%)
    Title                       : Ingles-PGS [CinemaniaHDD]
    Language                    : English
    Default                     : No
    Forced                      : No
    Original source medium      : Blu-ray

    Menu
    00:00:00.000                : Chapter 01
    00:02:40.410                : Chapter 02
    00:08:49.237                : Chapter 03
    00:16:08.425                : Chapter 04
    00:20:17.925                : Chapter 05
    00:30:35.208                : Chapter 06
    00:37:46.222                : Chapter 07
    00:48:40.417                : Chapter 08
    00:57:24.482                : Chapter 09
    01:08:15.257                : Chapter 10
    01:14:51.487                : Chapter 11
    01:23:23.248                : Chapter 12
    01:33:56.172                : Chapter 13
    01:36:01.714                : Chapter 14
    01:46:39.893                : Chapter 15
    01:53:40.313                : Chapter 16
    02:00:55.331                : Chapter 17
    02:05:23.432                : Chapter 18

  • Peso: 24.7 GiB

Sinopsis

Descargar El bebé de Rosemary (1968) «Criterion Collection» REMUX 1080p Latino. Una joven pareja, Rosemary y Guy, se muda a un infame edificio de apartamentos de Nueva York, conocido por aterradoras leyendas y misteriosos sucesos, con el propósito de formar una familia.

Audio Español Latino AC3 2.0 Dub ORG – EAC3 2.0 + AC3 2.0 ReDub – Ingles PCM 1.0 Bluray
Disponible Solo Para VIP!!!

Ficha técnica

Video trailer de la película

Enlaces de descarga

Rip de Bluray

Descargar El bebé de Rosemary (1968) «Criterion Collection» REMUX 1080p Latino


Aportes de DPeliculasHDmega la pass es:dpeliculashdmega.org Aportes de CinemaniaHD la pass es:cinemaniahdd.com
Guardado en : Drama , Remux , Terror

Películas relacionadas

descargar El bebé de Rosemary (1968) «Criterion Collection» REMUX 1080p Latino Full 1080p 1080p gratis, El bebé de Rosemary (1968) «Criterion Collection» REMUX 1080p Latino Full 1080p mega 1 link, El bebé de Rosemary (1968) «Criterion Collection» REMUX 1080p Latino Full 1080p pelicula completa, descargar El bebé de Rosemary (1968) «Criterion Collection» REMUX 1080p Latino Full 1080p gratis en mega.

El bebé de Rosemary (1968) «Criterion Collection» REMUX 1080p Latino pelicula full hd, El bebé de Rosemary (1968) «Criterion Collection» REMUX 1080p Latino mega latino, El bebé de Rosemary (1968) «Criterion Collection» REMUX 1080p Latino 4k latino, El bebé de Rosemary (1968) «Criterion Collection» REMUX 1080p Latino pelicula completa, El bebé de Rosemary (1968) «Criterion Collection» REMUX 1080p Latino descargar gratis, descargar El bebé de Rosemary (1968) «Criterion Collection» REMUX 1080p Latino pelicula latino, El bebé de Rosemary (1968) «Criterion Collection» REMUX 1080p Latino 1 link mega, El bebé de Rosemary (1968) «Criterion Collection» REMUX 1080p Latino 1 link google drive, El bebé de Rosemary (1968) «Criterion Collection» REMUX 1080p Latino hd 1080p latino.
Comentarios 0