×

¿Problemas para descargar con Mozilla, EDGE? Deshabilita la opción "Abrir vinculos en una pestaña nueva" tal como lo muestra ésta imagen.

Room 104 (2020) Temporada 4 AMZN WEB-DL 1080p Latino

504 vistas

Información de Room 104 (2020) Temporada 4 AMZN WEB-DL 1080p Latino

Datos de la película

  • Calidad: WEBDL
  • Audio: Español Latino AC3 2.0 - Ingles AC3 5.1 HBO
  • Subtitulos: Español Latino SRT - Ingles SRT
  • Resolución: 1920x1080
  • Formato: MKV
  • Codec: H.264
  • Encoder: cinemaniahdd
  • Mediainfo: Clic para Mostrar Datos Ver
  • Room 104 T04E01 AMZN WEB-DL 1080p Latino [CNMNHDD].mkv
    Format                      : Matroska
    Format version              : Version 4
    File size                   : 1.97 GiB
    Duration                    : 27 min 25 s
    Overall bit rate            : 10.3 Mb/s
    Movie name                  : Room 104 T04E01 - CinemaniaHDD.Net
    Encoded date                : UTC 2020-08-12 19:11:03
    Writing application         : mkvmerge v46.0.0 ('No Deeper Escape') 64-bit
    Writing library             : libebml v1.3.10 + libmatroska v1.5.2

    Video
    ID                          : 1
    Format                      : AVC
    Format/Info                 : Advanced Video Codec
    Format profile              : High@L4
    Format settings             : CABAC / 4 Ref Frames
    Format settings, CABAC      : Yes
    Format settings, Reference  : 4 frames
    Codec ID                    : V_MPEG4/ISO/AVC
    Duration                    : 27 min 25 s
    Bit rate mode               : Constant
    Bit rate                    : 9 397 kb/s
    Nominal bit rate            : 10 000 kb/s
    Width                       : 1 920 pixels
    Height                      : 1 080 pixels
    Display aspect ratio        : 16:9
    Frame rate mode             : Constant
    Frame rate                  : 23.976 (24000/1001) FPS
    Color space                 : YUV
    Chroma subsampling          : 4:2:0
    Bit depth                   : 8 bits
    Scan type                   : Progressive
    Bits/(Pixel*Frame)          : 0.189
    Stream size                 : 1.80 GiB (91%)
    Title                       : CinemaniaHDD
    Default                     : Yes
    Forced                      : No
    Color range                 : Limited
    Color primaries             : BT.709
    Transfer characteristics    : BT.709
    Matrix coefficients         : BT.709

    Audio #1
    ID                          : 2
    Format                      : AC-3
    Format/Info                 : Audio Coding 3
    Commercial name             : Dolby Digital
    Codec ID                    : A_AC3
    Duration                    : 27 min 25 s
    Bit rate mode               : Constant
    Bit rate                    : 256 kb/s
    Channel(s)                  : 2 channels
    Channel layout              : L R
    Sampling rate               : 48.0 kHz
    Frame rate                  : 31.250 FPS (1536 SPF)
    Compression mode            : Lossy
    Stream size                 : 50.2 MiB (2%)
    Title                       : Español latino [CinemaniaHDD]
    Language                    : Spanish
    Service kind                : Complete Main
    Default                     : Yes
    Forced                      : No

    Audio #2
    ID                          : 3
    Format                      : E-AC-3
    Format/Info                 : Enhanced AC-3
    Commercial name             : Dolby Digital Plus
    Codec ID                    : A_EAC3
    Duration                    : 27 min 25 s
    Bit rate mode               : Constant
    Bit rate                    : 640 kb/s
    Channel(s)                  : 6 channels
    Channel layout              : L R C LFE Ls Rs
    Sampling rate               : 48.0 kHz
    Frame rate                  : 31.250 FPS (1536 SPF)
    Compression mode            : Lossy
    Stream size                 : 126 MiB (6%)
    Title                       : Inglés [CinemaniaHDD]
    Language                    : English
    Service kind                : Complete Main
    Default                     : No
    Forced                      : No

    Text #1
    ID                          : 4
    Format                      : UTF-8
    Codec ID                    : S_TEXT/UTF8
    Codec ID/Info               : UTF-8 Plain Text
    Duration                    : 25 min 32 s
    Bit rate                    : 40 b/s
    Count of elements           : 296
    Stream size                 : 7.49 KiB (0%)
    Title                       : Inglés [CinemaniaHDD]
    Language                    : English
    Default                     : No
    Forced                      : No

    Text #2
    ID                          : 5
    Format                      : UTF-8
    Codec ID                    : S_TEXT/UTF8
    Codec ID/Info               : UTF-8 Plain Text
    Duration                    : 27 min 14 s
    Bit rate                    : 60 b/s
    Count of elements           : 440
    Stream size                 : 12.0 KiB (0%)
    Title                       : Español latino [CinemaniaHDD]
    Language                    : Spanish
    Default                     : No
    Forced                      : No

     

  • Peso: 1.97 GiB C/U --- 14.37 GiB en 12 Chapters.

Sinopsis

Estreno de temporada. El veinteañero Logan reúne a cuatro amigos para una íntima presentación del enigmático -y hace tiempo perdido- músico Graham Husker, siguiendo las específicas instrucciones de Graham.

FINAL DE TEMPORADA

12 CAPITULOS AGREGADOS

Ficha técnica

Video trailer de la película

Enlaces de descarga

Rip de Bluray

Descargar Room 104 (2020) Temporada 4 AMZN WEB-DL 1080p Latino




Aportes de DPeliculasHDmega la pass es:dpeliculashdmega.org Aportes de CinemaniaHD la pass es:cinemaniahdd.com
Guardado en : Comedia , Drama , HBO , Misterio , Series

Películas relacionadas

descargar Room 104 (2020) Temporada 4 AMZN WEB-DL 1080p Latino WEBDL 1080p gratis, Room 104 (2020) Temporada 4 AMZN WEB-DL 1080p Latino WEBDL mega 1 link, Room 104 (2020) Temporada 4 AMZN WEB-DL 1080p Latino WEBDL serie completa, descargar Room 104 (2020) Temporada 4 AMZN WEB-DL 1080p Latino WEBDL gratis en mega.

Room 104 (2020) Temporada 4 AMZN WEB-DL 1080p Latino pelicula full hd, Room 104 (2020) Temporada 4 AMZN WEB-DL 1080p Latino mega latino, Room 104 (2020) Temporada 4 AMZN WEB-DL 1080p Latino 4k latino, Room 104 (2020) Temporada 4 AMZN WEB-DL 1080p Latino pelicula completa, Room 104 (2020) Temporada 4 AMZN WEB-DL 1080p Latino descargar gratis, descargar Room 104 (2020) Temporada 4 AMZN WEB-DL 1080p Latino pelicula latino, Room 104 (2020) Temporada 4 AMZN WEB-DL 1080p Latino 1 link mega, Room 104 (2020) Temporada 4 AMZN WEB-DL 1080p Latino 1 link google drive, Room 104 (2020) Temporada 4 AMZN WEB-DL 1080p Latino hd 1080p latino.
Comentarios 0