×

¿Problemas para descargar con Mozilla, EDGE? Deshabilita la opción "Abrir vinculos en una pestaña nueva" tal como lo muestra ésta imagen.

Rompiendo las reglas (2020) REMUX 1080p Latino

129 vistas

Información de Rompiendo las reglas (2020) REMUX 1080p Latino

Datos de la película

  • Calidad: Full 1080p
  • Audio: Se especifica abajo de la Sinopsis
  • Subtitulos: Español Latino SRT- FORZADOS SRT
  • Resolución: 1920x1080p
  • Formato: MKV
  • Codec: H.264
  • Encoder: Melkor
  • Mediainfo: Clic para Mostrar Datos Ver
  • Rompiendo Las Normas (2020) REMUX 1080p Latino.mkv
    Format                      : Matroska
    Format version              : Version 4
    File size                   : 26.0 GiB
    Duration                    : 1 h 46 min
    Overall bit rate mode       : Variable
    Overall bit rate            : 35.0 Mb/s
    Movie name                  : Misbehaviour (2020) CinemaniaHDD.Net
    Encoded date                : UTC 2021-06-06 08:17:10
    Writing application         : mkvmerge v56.1.0 ('My Friend') 64-bit
    Writing library             : libebml v1.4.2 + libmatroska v1.6.4
    Attachments                 : CINEMANIAHD.png

    Video
    ID                          : 1
    ID in the original source m : 4113 (0x1011)
    Format                      : AVC
    Format/Info                 : Advanced Video Codec
    Format profile              : High@L4.1
    Format settings             : CABAC / 4 Ref Frames
    Format settings, CABAC      : Yes
    Format settings, Reference  : 4 frames
    Codec ID                    : V_MPEG4/ISO/AVC
    Duration                    : 1 h 46 min
    Bit rate mode               : Constant
    Bit rate                    : 31.9 Mb/s
    Nominal bit rate            : 34.0 Mb/s
    Width                       : 1 920 pixels
    Height                      : 1 080 pixels
    Display aspect ratio        : 16:9
    Frame rate mode             : Constant
    Frame rate                  : 24.000 FPS
    Color space                 : YUV
    Chroma subsampling          : 4:2:0
    Bit depth                   : 8 bits
    Scan type                   : Progressive
    Bits/(Pixel*Frame)          : 0.641
    Stream size                 : 23.7 GiB (91%)
    Title                       : REMUX HD1080p [CinemaniaHDD]
    Language                    : English
    Default                     : Yes
    Forced                      : No
    Original source medium      : Blu-ray

    Audio #1
    ID                          : 2
    Format                      : AC-3
    Format/Info                 : Audio Coding 3
    Commercial name             : Dolby Digital
    Codec ID                    : A_AC3
    Duration                    : 1 h 46 min
    Bit rate mode               : Constant
    Bit rate                    : 256 kb/s
    Channel(s)                  : 2 channels
    Channel layout              : L R
    Sampling rate               : 48.0 kHz
    Frame rate                  : 31.250 FPS (1536 SPF)
    Compression mode            : Lossy
    Stream size                 : 195 MiB (1%)
    Title                       : Español Latino [CinemaniaHDD]
    Language                    : Spanish
    Service kind                : Complete Main
    Default                     : Yes
    Forced                      : No

    Audio #2
    ID                          : 3
    ID in the original source m : 4352 (0x1100)
    Format                      : DTS XLL
    Format/Info                 : Digital Theater Systems
    Commercial name             : DTS-HD Master Audio
    Codec ID                    : A_DTS
    Duration                    : 1 h 46 min
    Bit rate mode               : Variable
    Bit rate                    : 2 800 kb/s
    Channel(s)                  : 6 channels
    Channel layout              : C L R Ls Rs LFE
    Sampling rate               : 48.0 kHz
    Frame rate                  : 93.750 FPS (512 SPF)
    Bit depth                   : 24 bits
    Compression mode            : Lossless
    Stream size                 : 2.08 GiB (8%)
    Title                       : Ingles [CinemaniaHDD]
    Language                    : English
    Default                     : No
    Forced                      : No
    Original source medium      : Blu-ray

    Text #1
    ID                          : 4
    Format                      : UTF-8
    Codec ID                    : S_TEXT/UTF8
    Codec ID/Info               : UTF-8 Plain Text
    Duration                    : 1 h 38 min
    Bit rate                    : 2 b/s
    Count of elements           : 43
    Stream size                 : 2.01 KiB (0%)
    Title                       : Forzados-SRT [CinemaniaHDD]
    Language                    : Spanish
    Default                     : Yes
    Forced                      : No

    Text #2
    ID                          : 5
    Format                      : UTF-8
    Codec ID                    : S_TEXT/UTF8
    Codec ID/Info               : UTF-8 Plain Text
    Duration                    : 1 h 39 min
    Bit rate                    : 76 b/s
    Count of elements           : 1422
    Stream size                 : 55.9 KiB (0%)
    Title                       : Español-SRT [CinemaniaHDD]
    Language                    : Spanish
    Default                     : No
    Forced                      : No

    Text #3
    ID                          : 6
    Format                      : UTF-8
    Codec ID                    : S_TEXT/UTF8
    Codec ID/Info               : UTF-8 Plain Text
    Duration                    : 1 h 39 min
    Bit rate                    : 65 b/s
    Count of elements           : 1457
    Stream size                 : 48.0 KiB (0%)
    Title                       : Ingles-SRT [CinemaniaHDD]
    Language                    : English
    Default                     : No
    Forced                      : No

    Menu
    00:00:00.000                : Chapter 01
    00:07:35.500                : Chapter 02
    00:16:33.375                : Chapter 03
    00:24:28.250                : Chapter 04
    00:32:25.125                : Chapter 05
    00:41:28.750                : Chapter 06
    00:49:59.333                : Chapter 07
    00:59:42.791                : Chapter 08
    01:08:28.250                : Chapter 09
    01:15:19.541                : Chapter 10
    01:25:17.125                : Chapter 11
    01:34:20.541                : Chapter 12
    01:46:18.166                : Chapter 13

  • Peso: 26.0 GiB

Sinopsis

Descargar Rompiendo las reglas (2020) REMUX 1080p Latino. Año 1970. El certamen de Miss Mundo se celebra en Londres presentado por Bob Hope, leyenda de la comedia estadounidense. En ese momento Miss Mundo es el programa de televisión más visto en el planeta, con más de 100 millones de espectadores. En pleno directo el recién creado Movimiento de Liberación de Mujeres invade el escenario e interrumpe la retransmisión afirmando que los concursos de belleza degradan a las mujeres. Así, de la noche a la mañana, el Movimiento se hace famoso… Al reanudarse el programa, la elección de la ganadora provoca un nuevo gran revuelo: no es la favorita sueca, sino Miss Grenada, la primera mujer negra en ser coronada Miss Mundo. En cuestión de horas, una audiencia global fue testigo de la expulsión del patriarcado del escenario y del nacimiento del nuevo ideal de belleza occidental.

Español Latino AC3 2.0 – Ingles DTS-HD 5.1

Ficha técnica

Video trailer de la película

Enlaces de descarga

Rip de Bluray

Descargar Rompiendo las reglas (2020) REMUX 1080p Latino




Aportes de DPeliculasHDmega la pass es:dpeliculashdmega.org Aportes de CinemaniaHD la pass es:cinemaniahdd.com
Guardado en : Comedia , Drama , Historia , Remux

Películas relacionadas

descargar Rompiendo las reglas (2020) REMUX 1080p Latino Full 1080p 1080p gratis, Rompiendo las reglas (2020) REMUX 1080p Latino Full 1080p mega 1 link, Rompiendo las reglas (2020) REMUX 1080p Latino Full 1080p pelicula completa, descargar Rompiendo las reglas (2020) REMUX 1080p Latino Full 1080p gratis en mega.

Rompiendo las reglas (2020) REMUX 1080p Latino pelicula full hd, Rompiendo las reglas (2020) REMUX 1080p Latino mega latino, Rompiendo las reglas (2020) REMUX 1080p Latino 4k latino, Rompiendo las reglas (2020) REMUX 1080p Latino pelicula completa, Rompiendo las reglas (2020) REMUX 1080p Latino descargar gratis, descargar Rompiendo las reglas (2020) REMUX 1080p Latino pelicula latino, Rompiendo las reglas (2020) REMUX 1080p Latino 1 link mega, Rompiendo las reglas (2020) REMUX 1080p Latino 1 link google drive, Rompiendo las reglas (2020) REMUX 1080p Latino hd 1080p latino.
Comentarios 0