×

¿Problemas para descargar con Mozilla, EDGE? Deshabilita la opción "Abrir vinculos en una pestaña nueva" tal como lo muestra ésta imagen.

Romeo and Juliet (1968) REMUX 1080p Latino – CMHDD

155 vistas

Información de Romeo and Juliet (1968) REMUX 1080p Latino – CMHDD

Datos de la película

  • Calidad: Full 1080p
  • Audio: Se especifica abajo de la Sinopsis
  • Subtitulos: Español Latino PGS
  • Resolución: 1920x1080p
  • Formato: MKV
  • Codec: H.264
  • Encoder: Dracarys
  • Mediainfo: Clic para Mostrar Datos Ver
  • Format                      : Matroska
    Format version              : Version 4
    File size                   : 35.9 GiB
    Duration                    : 2 h 18 min
    Overall bit rate mode       : Variable
    Overall bit rate            : 37.1 Mb/s
    Movie name                  : Romeo and Juliet (1968) REMUX 1080p Latino - CMHDD
    Encoded date                : UTC 2021-09-17 17:24:29
    Writing application         : mkvmerge v17.0.0 ('Be Ur Friend') 64-bit
    Writing library             : libebml v1.3.5 + libmatroska v1.4.8

    Video
    ID                          : 1
    Format                      : AVC
    Format/Info                 : Advanced Video Codec
    Format profile              : High@L4.1
    Format settings             : CABAC / 4 Ref Frames
    Format settings, CABAC      : Yes
    Format settings, Reference  : 4 frames
    Codec ID                    : V_MPEG4/ISO/AVC
    Duration                    : 2 h 18 min
    Bit rate mode               : Variable
    Bit rate                    : 35.9 Mb/s
    Maximum bit rate            : 39.0 Mb/s
    Width                       : 1 920 pixels
    Height                      : 1 080 pixels
    Display aspect ratio        : 16:9
    Frame rate mode             : Constant
    Frame rate                  : 23.976 (24000/1001) FPS
    Color space                 : YUV
    Chroma subsampling          : 4:2:0
    Bit depth                   : 8 bits
    Scan type                   : Progressive
    Bits/(Pixel*Frame)          : 0.721
    Stream size                 : 34.6 GiB (97%)
    Default                     : Yes
    Forced                      : No

    Audio #1
    ID                          : 2
    Format                      : MLP FBA
    Format/Info                 : Meridian Lossless Packing FBA
    Commercial name             : Dolby TrueHD
    Codec ID                    : A_TRUEHD
    Duration                    : 2 h 18 min
    Bit rate mode               : Variable
    Bit rate                    : 752 kb/s
    Maximum bit rate            : 918 kb/s
    Channel(s)                  : 2 channels
    Channel layout              : L R
    Sampling rate               : 48.0 kHz
    Frame rate                  : 1 200.000 FPS (40 SPF)
    Compression mode            : Lossless
    Stream size                 : 744 MiB (2%)
    Language                    : English
    Default                     : No
    Forced                      : No

    Audio #2
    ID                          : 3
    Format                      : AC-3
    Format/Info                 : Audio Coding 3
    Commercial name             : Dolby Digital
    Codec ID                    : A_AC3
    Duration                    : 2 h 18 min
    Bit rate mode               : Constant
    Bit rate                    : 224 kb/s
    Channel(s)                  : 2 channels
    Channel layout              : L R
    Sampling rate               : 48.0 kHz
    Frame rate                  : 31.250 FPS (1536 SPF)
    Compression mode            : Lossy
    Stream size                 : 222 MiB (1%)
    Language                    : English
    Service kind                : Complete Main
    Default                     : No
    Forced                      : No

    Audio #3
    ID                          : 4
    Format                      : AC-3
    Format/Info                 : Audio Coding 3
    Commercial name             : Dolby Digital
    Codec ID                    : A_AC3
    Duration                    : 2 h 18 min
    Bit rate mode               : Constant
    Bit rate                    : 224 kb/s
    Channel(s)                  : 2 channels
    Channel layout              : L R
    Sampling rate               : 48.0 kHz
    Frame rate                  : 31.250 FPS (1536 SPF)
    Compression mode            : Lossy
    Stream size                 : 222 MiB (1%)
    Language                    : Spanish
    Service kind                : Complete Main
    Default                     : Yes
    Forced                      : No

    Text
    ID                          : 5
    Format                      : PGS
    Muxing mode                 : zlib
    Codec ID                    : S_HDMV/PGS
    Codec ID/Info               : Picture based subtitle format used on BDs/HD-DVDs
    Duration                    : 2 h 17 min
    Bit rate                    : 27.8 kb/s
    Count of elements           : 2344
    Stream size                 : 27.4 MiB (0%)
    Language                    : Spanish
    Default                     : No
    Forced                      : No

    Menu
    00:00:00.000                : en:Chapter 1
    00:08:29.342                : en:Chapter 2
    00:12:23.033                : en:Chapter 3
    00:17:00.352                : en:Chapter 4
    00:22:51.745                : en:Chapter 5
    00:30:46.135                : en:Chapter 6
    00:38:52.246                : en:Chapter 7
    00:51:44.935                : en:Chapter 8
    00:57:01.584                : en:Chapter 9
    01:04:48.217                : en:Chapter 10
    01:10:56.043                : en:Chapter 11
    01:28:35.518                : en:Chapter 12
    01:34:43.094                : en:Chapter 13
    01:40:51.045                : en:Chapter 14
    01:48:38.303                : en:Chapter 15
    01:55:40.099                : en:Chapter 16
    02:12:47.793                : en:Chapter 17
    02:15:38.338                : en:Chapter 18

  • Peso: 35.9 GiB

Sinopsis

Adaptación del clásico de Shakespeare. Dos familias de Verona, los Montesco y los Capuleto, llevan enfrentadas durante años. El joven Romeo Montesco va junto con sus amigos a causar problemas en una fiesta en la que los Capuleto son los anfitriones. Allí conoce a Julieta Capuleta, e inmediatamente se enamora de ella.

 

Latino: AC3 2.0  –  Ingles: TrueHD 2.0 + Ac3 2.0

Ficha técnica

Video trailer de la película

Enlaces de descarga

Rip de Bluray

Descargar Romeo and Juliet (1968) REMUX 1080p Latino – CMHDD


Aportes de DPeliculasHDmega la pass es:dpeliculashdmega.org Aportes de CinemaniaHD la pass es:cinemaniahdd.com
Guardado en : Drama , Romance

Películas relacionadas

descargar Romeo and Juliet (1968) REMUX 1080p Latino – CMHDD Full 1080p 1080p gratis, Romeo and Juliet (1968) REMUX 1080p Latino – CMHDD Full 1080p mega 1 link, Romeo and Juliet (1968) REMUX 1080p Latino – CMHDD Full 1080p pelicula completa, descargar Romeo and Juliet (1968) REMUX 1080p Latino – CMHDD Full 1080p gratis en mega.

Romeo and Juliet (1968) REMUX 1080p Latino – CMHDD pelicula full hd, Romeo and Juliet (1968) REMUX 1080p Latino – CMHDD mega latino, Romeo and Juliet (1968) REMUX 1080p Latino – CMHDD 4k latino, Romeo and Juliet (1968) REMUX 1080p Latino – CMHDD pelicula completa, Romeo and Juliet (1968) REMUX 1080p Latino – CMHDD descargar gratis, descargar Romeo and Juliet (1968) REMUX 1080p Latino – CMHDD pelicula latino, Romeo and Juliet (1968) REMUX 1080p Latino – CMHDD 1 link mega, Romeo and Juliet (1968) REMUX 1080p Latino – CMHDD 1 link google drive, Romeo and Juliet (1968) REMUX 1080p Latino – CMHDD hd 1080p latino.