×

¿Problemas para descargar con Mozilla, EDGE? Deshabilita la opción "Abrir vinculos en una pestaña nueva" tal como lo muestra ésta imagen.

Rome in Love (2019) WEB-DL 1080p Latino

131 vistas

Información de Rome in Love (2019) WEB-DL 1080p Latino

Datos de la película

  • Calidad: WEBDL
  • Audio: Español Latino AC3 5.1 WEB-DL - Ingles AC3 5.1 WEB-DL
  • Subtitulos: Español Latino SRT- FORZADOS SRT
  • Resolución: 1920x1080
  • Formato: MKV
  • Codec: H.264
  • Encoder: cinemaniahdd
  • Mediainfo: Clic para Mostrar Datos Ver
  • Rome in Love (2019) WEB-DL 1080p Latino [CNMNHDD].mkv
    Format                      : Matroska
    Format version              : Version 4
    File size                   : 3.59 GiB
    Duration                    : 1 h 26 min
    Overall bit rate            : 5 938 kb/s
    Movie name                  : Rome in Love (2019) - CinemaniaHDD.Net
    Encoded date                : UTC 2021-05-19 01:03:50
    Writing application         : mkvmerge v56.1.0 ('My Friend') 64-bit
    Writing library             : libebml v1.4.2 + libmatroska v1.6.4

    Video
    ID                          : 1
    Format                      : AVC
    Format/Info                 : Advanced Video Codec
    Format profile              : High@L4
    Format settings             : CABAC / 4 Ref Frames
    Format settings, CABAC      : Yes
    Format settings, Reference  : 4 frames
    Codec ID                    : V_MPEG4/ISO/AVC
    Duration                    : 1 h 26 min
    Bit rate                    : 5 168 kb/s
    Width                       : 1 912 pixels
    Height                      : 1 072 pixels
    Display aspect ratio        : 16:9
    Frame rate mode             : Constant
    Frame rate                  : 23.976 FPS
    Color space                 : YUV
    Chroma subsampling          : 4:2:0
    Bit depth                   : 8 bits
    Scan type                   : Progressive
    Bits/(Pixel*Frame)          : 0.105
    Stream size                 : 3.13 GiB (87%)
    Title                       : CinemaniaHDD
    Language                    : English
    Default                     : Yes
    Forced                      : No
    Color range                 : Limited
    Color primaries             : BT.709
    Transfer characteristics    : BT.709
    Matrix coefficients         : BT.709

    Audio #1
    ID                          : 2
    Format                      : AC-3
    Format/Info                 : Audio Coding 3
    Commercial name             : Dolby Digital
    Codec ID                    : A_AC3
    Duration                    : 1 h 26 min
    Bit rate mode               : Constant
    Bit rate                    : 384 kb/s
    Channel(s)                  : 6 channels
    Channel layout              : L R C LFE Ls Rs
    Sampling rate               : 48.0 kHz
    Frame rate                  : 31.250 FPS (1536 SPF)
    Compression mode            : Lossy
    Delay relative to video     : -42 ms
    Stream size                 : 238 MiB (6%)
    Title                       : Español latino [CinemaniaHDD]
    Language                    : Spanish
    Service kind                : Complete Main
    Default                     : Yes
    Forced                      : No

    Audio #2
    ID                          : 3
    Format                      : AC-3
    Format/Info                 : Audio Coding 3
    Commercial name             : Dolby Digital
    Codec ID                    : A_AC3
    Duration                    : 1 h 26 min
    Bit rate mode               : Constant
    Bit rate                    : 384 kb/s
    Channel(s)                  : 6 channels
    Channel layout              : L R C LFE Ls Rs
    Sampling rate               : 48.0 kHz
    Frame rate                  : 31.250 FPS (1536 SPF)
    Compression mode            : Lossy
    Delay relative to video     : -42 ms
    Stream size                 : 238 MiB (6%)
    Title                       : Inglés [CinemaniaHDD]
    Language                    : English
    Service kind                : Complete Main
    Default                     : No
    Forced                      : No

    Text #1
    ID                          : 4
    Format                      : UTF-8
    Codec ID                    : S_TEXT/UTF8
    Codec ID/Info               : UTF-8 Plain Text
    Duration                    : 56 min 31 s
    Bit rate                    : 0 b/s
    Count of elements           : 9
    Stream size                 : 270 Bytes (0%)
    Title                       : Forzados [CinemaniaHDD]
    Language                    : Spanish
    Default                     : Yes
    Forced                      : Yes

    Text #2
    ID                          : 5
    Format                      : UTF-8
    Codec ID                    : S_TEXT/UTF8
    Codec ID/Info               : UTF-8 Plain Text
    Duration                    : 1 h 25 min
    Bit rate                    : 87 b/s
    Count of elements           : 1506
    Stream size                 : 54.7 KiB (0%)
    Title                       : Español latino [CinemaniaHDD]
    Language                    : Spanish
    Default                     : No
    Forced                      : No

    Menu
    00:00:00.000                : Capítulo 1
    00:13:09.122                : Capítulo 2
    00:27:10.463                : Capítulo 3
    00:40:30.261                : Capítulo 4
    00:53:13.607                : Capítulo 5
    01:07:01.601                : Capítulo 6
    01:16:30.710                : Capítulo 7

     

  • Peso: 3.59 GiB

Sinopsis

Una actriz desconocida consigue el papel de su vida en Roma. Junto con un periodista estadounidense que escribe un perfil, descubrirá sorpresas sobre el amor y la vida en la ciudad eterna.

Ficha técnica

Video trailer de la película

Enlaces de descarga

Rip de Bluray

Descargar Rome in Love (2019) WEB-DL 1080p Latino




Aportes de DPeliculasHDmega la pass es:dpeliculashdmega.org Aportes de CinemaniaHD la pass es:cinemaniahdd.com
Guardado en : Película de TV , Romance

Películas relacionadas

  • After: Amor infinito (2022) AMZN WEB-DL 1080p Latino

    After: Amor infinito (2022) AMZN WEB-DL 1080p Latino

    2022
    After: Amor infinito (2022) AMZN WEB-DL 1080p Latino

    1h 35m 2022

    Descargar After: Amor infinito (2022) AMZN WEB-DL 1080p Latino. El amor de Tessa y Hardin nunca ha sido...

    Director: Castille Landon

    Género: Drama

    Actores: Velizar Nikolaev Biney

  • First Love (2022) AMZN WEB-DL 1080p Latino

    First Love (2022) AMZN WEB-DL 1080p Latino

    2022
    First Love (2022) AMZN WEB-DL 1080p Latino

    1h 35m 2022

    Descargar First Love (2022) AMZN WEB-DL 1080p Latino. Una tierna mirada sobre la entrada en la edad adulta....

    Director: Joshua Glassman

    Género: Drama

    Actores: Vincent Ventresca

  • Romance en Verona (2022) NF WEB-DL 1080p Latino

    Romance en Verona (2022) NF WEB-DL 1080p Latino

    2022
    Romance en Verona (2022) NF WEB-DL 1080p Latino

    1h 55m 2022

    Descargar Romance en Verona (2022) NF WEB-DL 1080p Latino. Una joven hace un viaje a la romántica Verona,...

    Director: Mark Steven Johnson

    Género: Comedia

    Actores: Tom Hopper

descargar Rome in Love (2019) WEB-DL 1080p Latino WEBDL 1080p gratis, Rome in Love (2019) WEB-DL 1080p Latino WEBDL mega 1 link, Rome in Love (2019) WEB-DL 1080p Latino WEBDL pelicula completa, descargar Rome in Love (2019) WEB-DL 1080p Latino WEBDL gratis en mega.

Rome in Love (2019) WEB-DL 1080p Latino pelicula full hd, Rome in Love (2019) WEB-DL 1080p Latino mega latino, Rome in Love (2019) WEB-DL 1080p Latino 4k latino, Rome in Love (2019) WEB-DL 1080p Latino pelicula completa, Rome in Love (2019) WEB-DL 1080p Latino descargar gratis, descargar Rome in Love (2019) WEB-DL 1080p Latino pelicula latino, Rome in Love (2019) WEB-DL 1080p Latino 1 link mega, Rome in Love (2019) WEB-DL 1080p Latino 1 link google drive, Rome in Love (2019) WEB-DL 1080p Latino hd 1080p latino.
Comentarios 0