Romance & Cigarettes (2005) WEB-DL 1080p Latino

20 vistas
1 estrella2 estrellas3 estrellas4 estrellas5 estrellas (2 votos, promedio: 5,00 de 5)
Cargando...

Información de Romance & Cigarettes (2005) WEB-DL 1080p Latino

Datos de la película

  • Calidad:
  • Audio: Español Latino AC3 2.0 WEB-DL - Ingles AC3 5.1 WEB-DL
  • Subtitulos: Español Latino SRT - Ingles SRT
  • Resolución: 1920x1080
  • Formato: MKV
  • Codec: H.264
  • Encoder: cinemaniahdd
  • Mediainfo: Clic para Mostrar Datos Ver
  • Romance & Cigarettes (2005) WEB-DL 1080p Latino [CNMNHDD].mkv
    Format                      : Matroska
    Format version              : Version 4
    File size                   : 6.67 GiB
    Duration                    : 1 h 46 min
    Overall bit rate mode       : Variable
    Overall bit rate            : 8 983 kb/s
    Movie name                  : Romance & Cigarettes (2005) - CinemaniaHDD.Net
    Encoded date                : UTC 2021-05-03 01:33:46
    Writing application         : mkvmerge v56.1.0 ('My Friend') 64-bit
    Writing library             : libebml v1.4.2 + libmatroska v1.6.4

    Video
    ID                          : 1
    Format                      : AVC
    Format/Info                 : Advanced Video Codec
    Format profile              : High@L4
    Format settings             : CABAC / 4 Ref Frames
    Format settings, CABAC      : Yes
    Format settings, Reference  : 4 frames
    Codec ID                    : V_MPEG4/ISO/AVC
    Duration                    : 1 h 46 min
    Bit rate mode               : Variable
    Bit rate                    : 8 213 kb/s
    Maximum bit rate            : 12.4 Mb/s
    Width                       : 1 920 pixels
    Height                      : 816 pixels
    Display aspect ratio        : 2.35:1
    Frame rate mode             : Constant
    Frame rate                  : 23.976 (24000/1001) FPS
    Color space                 : YUV
    Chroma subsampling          : 4:2:0
    Bit depth                   : 8 bits
    Scan type                   : Progressive
    Bits/(Pixel*Frame)          : 0.219
    Stream size                 : 6.10 GiB (91%)
    Title                       : CinemaniaHDD
    Language                    : English
    Default                     : Yes
    Forced                      : No

    Audio #1
    ID                          : 2
    Format                      : AC-3
    Format/Info                 : Audio Coding 3
    Commercial name             : Dolby Digital
    Codec ID                    : A_AC3
    Duration                    : 1 h 46 min
    Bit rate mode               : Constant
    Bit rate                    : 384 kb/s
    Channel(s)                  : 2 channels
    Channel layout              : L R
    Sampling rate               : 48.0 kHz
    Frame rate                  : 31.250 FPS (1536 SPF)
    Compression mode            : Lossy
    Stream size                 : 292 MiB (4%)
    Title                       : Español latino [CinemaniaHDD]
    Language                    : Spanish
    Service kind                : Complete Main
    Default                     : Yes
    Forced                      : No

    Audio #2
    ID                          : 3
    Format                      : AC-3
    Format/Info                 : Audio Coding 3
    Commercial name             : Dolby Digital
    Codec ID                    : A_AC3
    Duration                    : 1 h 46 min
    Bit rate mode               : Constant
    Bit rate                    : 384 kb/s
    Channel(s)                  : 6 channels
    Channel layout              : L R C LFE Ls Rs
    Sampling rate               : 48.0 kHz
    Frame rate                  : 31.250 FPS (1536 SPF)
    Compression mode            : Lossy
    Stream size                 : 292 MiB (4%)
    Title                       : Inglés [CinemaniaHDD]
    Language                    : English
    Service kind                : Complete Main
    Default                     : No
    Forced                      : No

    Text #1
    ID                          : 4
    Format                      : UTF-8
    Codec ID                    : S_TEXT/UTF8
    Codec ID/Info               : UTF-8 Plain Text
    Duration                    : 1 h 39 min
    Bit rate                    : 48 b/s
    Count of elements           : 1258
    Stream size                 : 35.7 KiB (0%)
    Title                       : Español latino [CC] [CinemaniaHDD]
    Language                    : Spanish
    Default                     : No
    Forced                      : No

    Text #2
    ID                          : 5
    Format                      : UTF-8
    Codec ID                    : S_TEXT/UTF8
    Codec ID/Info               : UTF-8 Plain Text
    Duration                    : 1 h 45 min
    Bit rate                    : 59 b/s
    Count of elements           : 1414
    Stream size                 : 46.1 KiB (0%)
    Title                       : Inglés [CC] [CinemaniaHDD]
    Language                    : English
    Default                     : No
    Forced                      : No

     

  • Peso: 6.67 GiB

Sinopsis

Musical en el que un hombre (Gandolfini) tiene que elegir entre su mujer (Susan Sarandon) o su amante (Kate Winslet).

Ficha técnica

  • Titulo original: Romance & Cigarettes
  • Fecha de lanzamiento: 13-09-2005 (United States of America)
  • Director: John Turturro
  • Género: Comedia, Música, Romance
  • Puntuación: 5.0 2 votos
  • Duración:
    1h 45m

Video trailer de la película

Enlaces de descarga

Rip de Bluray

Descargar Romance & Cigarettes (2005) WEB-DL 1080p Latino




Aportes de DPeliculasHDmega la pass es:dpeliculashdmega.org Aportes de CinemaniaHD la pass es:cinemaniahdd.com
Guardado en : Comedia , Música , Romance

Películas relacionadas

Romance & Cigarettes (2005) WEB-DL 1080p Latino pelicula full hd, Romance & Cigarettes (2005) WEB-DL 1080p Latino mega latino, Romance & Cigarettes (2005) WEB-DL 1080p Latino 4k latino, Romance & Cigarettes (2005) WEB-DL 1080p Latino pelicula completa, Romance & Cigarettes (2005) WEB-DL 1080p Latino descargar gratis, descargar Romance & Cigarettes (2005) WEB-DL 1080p Latino pelicula latino, Romance & Cigarettes (2005) WEB-DL 1080p Latino 1 link mega, Romance & Cigarettes (2005) WEB-DL 1080p Latino 1 link google drive, Romance & Cigarettes (2005) WEB-DL 1080p Latino hd 1080p latino.
Comentarios 0