Roma (2018) Web-DL 1080p Latino

2.551 vistas
1 estrella2 estrellas3 estrellas4 estrellas5 estrellas (4 votos, promedio: 4,00 de 5)
Cargando…

Información de Roma (2018) Web-DL 1080p Latino

Datos de la película

  • Calidad: WEBDL
  • Audio: Se especifica abajo de la Sinopsis
  • Subtitulos: Español Latino SRT - Ingles SRT
  • Resolución: 1920X1080p
  • Formato: MKV
  • Codec: H.264
  • Encoder: STRIFE
  • Mediainfo: Clic para Mostrar Datos Ver
  • Roma (2018) Web-DL 1080p NF Latino.mkv
    Format                      : Matroska
    Format version              : Version 4
    File size                   : 6.71 GiB
    Duration                    : 2 h 15 min
    Overall bit rate mode       : Variable
    Overall bit rate            : 7 106 kb/s
    Movie name                  : CinemaniaHDD.Net
    Encoded date                : UTC 2018-12-15 04:27:11
    Writing application         : mkvmerge v28.2.0 ('The Awakening') 64-bit
    Writing library             : libebml v1.3.6 + libmatroska v1.4.9

    Video
    ID                          : 1
    Format                      : AVC
    Format/Info                 : Advanced Video Codec
    Format profile              : [email protected]
    Format settings             : CABAC / 3 Ref Frames
    Format settings, CABAC      : Yes
    Format settings, ReFrames   : 3 frames
    Codec ID                    : V_MPEG4/ISO/AVC
    Duration                    : 2 h 15 min
    Bit rate mode               : Variable
    Bit rate                    : 6 810 kb/s
    Maximum bit rate            : 10.2 Mb/s
    Width                       : 1 920 pixels
    Height                      : 1 080 pixels
    Display aspect ratio        : 16:9
    Frame rate mode             : Constant
    Frame rate                  : 23.976 (24000/1001) FPS
    Color space                 : YUV
    Chroma subsampling          : 4:2:0
    Bit depth                   : 8 bits
    Scan type                   : Progressive
    Bits/(Pixel*Frame)          : 0.137
    Stream size                 : 6.29 GiB (94%)
    Title                       : HD1080p [Web-DL]
    Writing library             : x264 core 148 r2715 7e75228
    Encoding settings           : cabac=1 / ref=3 / deblock=1:0:0 / analyse=0x1:0x111 / me=umh / subme=10 / psy=1 / psy_rd=1.00:0.00 / mixed_ref=1 / me_range=24 / chroma_me=1 / trellis=2 / 8x8dct=0 / cqm=0 / deadzone=21,11 / fast_pskip=1 / chroma_qp_offset=-2 / threads=8 / lookahead_threads=1 / sliced_threads=0 / nr=0 / decimate=1 / interlaced=0 / bluray_compat=0 / stitchable=1 / constrained_intra=0 / bframes=2 / b_pyramid=0 / b_adapt=2 / b_bias=0 / direct=3 / weightb=1 / open_gop=0 / weightp=2 / keyint=48 / keyint_min=25 / scenecut=0 / intra_refresh=0 / rc_lookahead=48 / rc=2pass / mbtree=1 / bitrate=6810 / ratetol=1.0 / qcomp=0.50 / qpmin=6 / qpmax=51 / qpstep=4 / cplxblur=20.0 / qblur=0.5 / vbv_maxrate=10215 / vbv_bufsize=13620 / nal_hrd=vbr / filler=0 / ip_ratio=1.40 / aq=1:1.00
    Default                     : Yes
    Forced                      : No

    Audio
    ID                          : 2
    Format                      : E-AC-3 JOC
    Format/Info                 : Enhanced AC-3 with Joint Object Coding
    Commercial name             : Dolby Digital Plus with Dolby Atmos
    Codec ID                    : A_EAC3
    Duration                    : 2 h 15 min
    Bit rate mode               : Constant
    Bit rate                    : 448 kb/s
    Channel(s)                  : 6 channels
    Channel layout              : L R C LFE Ls Rs
    Sampling rate               : 48.0 kHz
    Frame rate                  : 31.250 FPS (1536 SPF)
    Compression mode            : Lossy
    Stream size                 : 433 MiB (6%)
    Title                       : E-AC3_5.1_NF_Esp
    Language                    : Spanish
    Service kind                : Complete Main
    Default                     : Yes
    Forced                      : No
    Complexity index            : 16
    Number of dynamic objects   : 15
    Bed channel count           : 1 channel
    Bed channel configuration   : LFE

    Text #1
    ID                          : 3
    Format                      : UTF-8
    Codec ID                    : S_TEXT/UTF8
    Codec ID/Info               : UTF-8 Plain Text
    Duration                    : 2 h 14 min
    Bit rate                    : 51 b/s
    Count of elements           : 1636
    Stream size                 : 50.7 KiB (0%)
    Title                       : Sub_Esp
    Language                    : Spanish
    Default                     : No
    Forced                      : No

    Text #2
    ID                          : 4
    Format                      : UTF-8
    Codec ID                    : S_TEXT/UTF8
    Codec ID/Info               : UTF-8 Plain Text
    Duration                    : 2 h 8 min
    Bit rate                    : 30 b/s
    Count of elements           : 886
    Stream size                 : 29.0 KiB (0%)
    Title                       : Sub_Eng
    Language                    : English
    Default                     : No
    Forced                      : No

  • Peso: 6.71 GiB

Sinopsis

Descargar Roma (2018) Web-DL 1080p Latino, Mega, Google Drive, Torrent. Cleo (Yalitza Aparicio) es la joven sirvienta de una familia que vive en la Colonia Roma, barrio de clase media de Ciudad de México. En esta carta de amor a las mujeres que lo criaron, Cuarón se inspira en su propia infancia para pintar un retrato realista y emotivo de los conflictos domésticos y las jerarquías sociales durante la agitación política de la década de los 70.

Audio Español Latino E-AC3 5.1 Netflix

Ficha técnica

Video trailer de la película

Enlaces de descarga

Rip de Bluray

Descargar Roma (2018) Web-DL 1080p Latino




Aportes de DPeliculasHDmega la pass es:dpeliculashdmega.org Aportes de CinemaniaHD la pass es:cinemaniahdd.com
Guardado en : Drama , Peliculas Netflix

Películas relacionadas

  • Boy Erased (2018) HD 1080p Latino

    2018
    Boy Erased (2018) HD 1080p Latino

    0.0 1h 54m 2018

    Descargar Boy Erased (2018) HD 1080p Latino, Mega, Google Drive, Torrent. La historia se centra en el...

    Director: Joel Edgerton

    Género: Drama

    Actores: Xavier Dolan

  • Indivisible (2018) HD Español Latino

    2018
    Indivisible (2018) HD Español Latino

    0.0 2h 0m 2018

    'Indivisible' narra la extraordinaria historia real del capellán del ejército Darren Turner y su esposa...

    Director: David G. Evans

    Género: Bélica

    Actores: Tia Mowry

  • Nace Una Estrella (2018) Web-DL 1080p Latino

    2018
    Nace Una Estrella (2018) Web-DL 1080p Latino

    3.0 2h 15m 2018

    Descargar Nace Una Estrella (2018) Web-DL 1080p Latino, Mega, Google Drive, Torrent. Jackson Maine es...

    Director: Bradley Cooper

    Género: Drama

    Actores: Willam Belli

Comentarios 4
  • Juan Manuel - 11 enero, 2019

    Hay algunas peliculas que descargado pero al intentar descomprimir me dice que el archivo esta dañado o tiene un formato desconocido

    entre ellas
    Roma
    Mary y la flor de la hechicera
    Mowgli
    Depredador
    Venon

    entre otras saludos

  • mila - 16 diciembre, 2018

    cual es la contraseña para abrir el archivo?????

    • dpelis - 16 diciembre, 2018

      cinemaniahdd.net
      cinemaniahdd.com