×

¿Problemas para descargar con Mozilla, EDGE? Deshabilita la opción "Abrir vinculos en una pestaña nueva" tal como lo muestra ésta imagen.

Rogue One: Una historia de Star Wars (2016) REMUX 1080p Latino

2.213 vistas

Información de Rogue One: Una historia de Star Wars (2016) REMUX 1080p Latino

Datos de la película

  • Calidad: Full 1080p
  • Audio: Español Latino AC3 5.1 BLURAY - Ingles DTS-HD Master 7.1 BLURAY
  • Subtitulos: Español Latino PGS - Ingles PGS
  • Resolución: 1920x1080p
  • Formato: MKV
  • Codec: H.264
  • Encoder: Dracarys | CinefiloCool
  • Mediainfo: Clic para Mostrar Datos Ver
  • Rogue One (2016) REMUX 1080p Latino-CMHDD.mkv
    Format                      : Matroska
    Format version              : Version 4
    File size                   : 37.1 GiB
    Duration                    : 2 h 13 min
    Overall bit rate mode       : Variable
    Overall bit rate            : 39.6 Mb/s
    Movie name                  : Rogue One - Una Historia De Star Wars (2016) CinemaniaHDD.Net
    Encoded date                : UTC 2022-05-14 00:43:45
    Writing application         : mkvmerge v56.1.0 ('My Friend') 64-bit
    Writing library             : libebml v1.4.2 + libmatroska v1.6.4
    Attachments                 : CINEMANIAHD.png

    Video
    ID                          : 1
    Format                      : AVC
    Format/Info                 : Advanced Video Codec
    Format profile              : High@L4.1
    Format settings             : CABAC / 4 Ref Frames
    Format settings, CABAC      : Yes
    Format settings, Reference  : 4 frames
    Codec ID                    : V_MPEG4/ISO/AVC
    Duration                    : 2 h 13 min
    Bit rate mode               : Variable
    Bit rate                    : 33.8 Mb/s
    Maximum bit rate            : 35.5 Mb/s
    Width                       : 1 920 pixels
    Height                      : 1 080 pixels
    Display aspect ratio        : 16:9
    Frame rate mode             : Constant
    Frame rate                  : 23.976 (24000/1001) FPS
    Color space                 : YUV
    Chroma subsampling          : 4:2:0
    Bit depth                   : 8 bits
    Scan type                   : Progressive
    Bits/(Pixel*Frame)          : 0.680
    Stream size                 : 31.6 GiB (85%)
    Title                       : REMUX HD1080p [CinemaniaHDD]
    Default                     : Yes
    Forced                      : Yes

    Audio #1
    ID                          : 2
    Format                      : AC-3
    Format/Info                 : Audio Coding 3
    Commercial name             : Dolby Digital
    Codec ID                    : A_AC3
    Duration                    : 2 h 13 min
    Bit rate mode               : Constant
    Bit rate                    : 640 kb/s
    Channel(s)                  : 6 channels
    Channel layout              : L R C LFE Ls Rs
    Sampling rate               : 48.0 kHz
    Frame rate                  : 31.250 FPS (1536 SPF)
    Compression mode            : Lossy
    Stream size                 : 613 MiB (2%)
    Title                       : Español Latino [CinemaniaHDD]
    Language                    : Spanish
    Service kind                : Complete Main
    Default                     : Yes
    Forced                      : Yes

    Audio #2
    ID                          : 3
    Format                      : DTS XLL
    Format/Info                 : Digital Theater Systems
    Commercial name             : DTS-HD Master Audio
    Codec ID                    : A_DTS
    Duration                    : 2 h 13 min
    Bit rate mode               : Variable
    Bit rate                    : 5 135 kb/s
    Channel(s)                  : 8 channels
    Channel layout              : C L R LFE Lb Rb Lss Rss
    Sampling rate               : 48.0 kHz
    Frame rate                  : 93.750 FPS (512 SPF)
    Bit depth                   : 24 bits
    Compression mode            : Lossless
    Stream size                 : 4.80 GiB (13%)
    Title                       : Ingles [CinemaniaHDD]
    Language                    : English
    Default                     : No
    Forced                      : No

    Text #1
    ID                          : 4
    Format                      : PGS
    Muxing mode                 : zlib
    Codec ID                    : S_HDMV/PGS
    Codec ID/Info               : Picture based subtitle format used on BDs/HD-DVDs
    Duration                    : 1 h 23 min
    Bit rate                    : 235 b/s
    Count of elements           : 54
    Stream size                 : 144 KiB (0%)
    Title                       : Forzados-PGS [CinemaniaHDD]
    Language                    : Spanish
    Default                     : No
    Forced                      : No

    Text #2
    ID                          : 5
    Format                      : PGS
    Muxing mode                 : zlib
    Codec ID                    : S_HDMV/PGS
    Codec ID/Info               : Picture based subtitle format used on BDs/HD-DVDs
    Duration                    : 2 h 5 min
    Bit rate                    : 30.2 kb/s
    Count of elements           : 3002
    Stream size                 : 27.1 MiB (0%)
    Title                       : Español-PGS [CinemaniaHDD]
    Language                    : Spanish
    Default                     : No
    Forced                      : No

    Text #3
    ID                          : 6
    Format                      : PGS
    Muxing mode                 : zlib
    Codec ID                    : S_HDMV/PGS
    Codec ID/Info               : Picture based subtitle format used on BDs/HD-DVDs
    Duration                    : 2 h 5 min
    Bit rate                    : 36.0 kb/s
    Count of elements           : 3666
    Stream size                 : 32.3 MiB (0%)
    Title                       : Ingles-PGS [CinemaniaHDD]
    Language                    : English
    Default                     : No
    Forced                      : No

    Text #4
    ID                          : 7
    Format                      : UTF-8
    Codec ID                    : S_TEXT/UTF8
    Codec ID/Info               : UTF-8 Plain Text
    Duration                    : 1 h 26 min
    Bit rate                    : 0 b/s
    Count of elements           : 19
    Stream size                 : 551 Bytes (0%)
    Title                       : Forzados-SRT [CinemaniaHDD]
    Language                    : Spanish
    Default                     : Yes
    Forced                      : Yes

    Text #5
    ID                          : 8
    Format                      : UTF-8
    Codec ID                    : S_TEXT/UTF8
    Codec ID/Info               : UTF-8 Plain Text
    Duration                    : 2 h 5 min
    Bit rate                    : 47 b/s
    Count of elements           : 1498
    Stream size                 : 44.0 KiB (0%)
    Title                       : Español-SRT [CinemaniaHDD]
    Language                    : Spanish
    Default                     : No
    Forced                      : No

    Menu
    00:00:00.000                : "He's Come For Us"
    00:02:34.654                : Unfinished Business
    00:07:46.465                : Jyn In Prison
    00:08:42.813                : Ring Of Kafrene
    00:11:04.622                : An Urgent Message
    00:12:21.198                : Wobani Prison Break
    00:13:41.153                : Rebel Interrogation
    00:17:19.913                : Mission Departure
    00:20:09.541                : Saw Gerrera
    00:21:54.771                : Krennic And Tarkin
    00:23:47.092                : Jyn's Dream
    00:24:31.386                : Scouting Jedha Citym
    00:26:53.444                : Bor Gullet
    00:27:46.623                : Guardians Of The Whills
    00:30:37.293                : Holy City Ambush
    00:33:53.406                : "Let Them Pass"
    00:37:11.270                : Saw's Catacombs
    00:42:30.089                : Galen's Message
    00:47:16.124                : Jedha Escape
    00:51:04.144                : Tarkin Commands
    00:52:23.723                : Race To Eadu
    00:55:53.266                : Eadu Crash
    00:59:48.251                : Scouting Eadu
    01:02:07.807                : Krennic And Galen
    01:05:25.504                : Attack On Eadu
    01:10:24.094                : Eadu Aftermath
    01:12:49.531                : Mustafar
    01:16:28.458                : Jyn Before The Council
    01:19:04.322                : "May The Force Be With Us"
    01:21:55.160                : Rogue One Launches
    01:23:25.667                : Scarif Gate
    01:25:58.986                : 10 Men Like 100
    01:27:34.957                : Imperial Inspection
    01:29:57.308                : Ground Forces
    01:31:53.841                : The Battle Begins
    01:34:18.736                : Scrambling The Rebel Fleet
    01:36:07.511                : Sowing Confusion
    01:37:48.237                : Rebel Reinforcements
    01:40:27.604                : Beach Battle
    01:42:44.074                : Master Switch
    01:45:26.778                : Stardust
    01:47:55.010                : Data Vault
    01:50:31.416                : Sacrifices
    01:53:28.885                : "We Have The Plans"
    01:55:46.272                : Final Confrontation
    01:59:23.447                : Transmission Received
    02:01:11.347                : Fire When Ready
    02:03:15.596                : Hope
    02:05:42.117                : End Credits

  • Peso: 37.1 GiB

Sinopsis

Descargar Rogue One: Una historia de Star Wars (2016) REMUX 1080p Latino. El Imperio Galáctico ha terminado de construir el arma más poderosa de todas, la Estrella de la muerte, pero un grupo de rebeldes decide realizar una misión de muy alto riesgo: robar los planos de dicha estación antes de que entre en operaciones, mientras se enfrentan también al poderoso Lord Sith conocido como Darth Vader, discípulo del despiadado Emperador Palpatine.

Nota: Intro Con Textos En Español 🙂

Resubido para VIP!!!

Ficha técnica

Video trailer de la película

Enlaces de descarga

Rip de Bluray

Descargar Rogue One: Una historia de Star Wars (2016) REMUX 1080p Latino




Aportes de DPeliculasHDmega la pass es:dpeliculashdmega.org Aportes de CinemaniaHD la pass es:cinemaniahdd.com
Guardado en : Acción , Aventura , Ciencia ficción , Remux

Películas relacionadas

descargar Rogue One: Una historia de Star Wars (2016) REMUX 1080p Latino Full 1080p 1080p gratis, Rogue One: Una historia de Star Wars (2016) REMUX 1080p Latino Full 1080p mega 1 link, Rogue One: Una historia de Star Wars (2016) REMUX 1080p Latino Full 1080p pelicula completa, descargar Rogue One: Una historia de Star Wars (2016) REMUX 1080p Latino Full 1080p gratis en mega.

Rogue One: Una historia de Star Wars (2016) REMUX 1080p Latino pelicula full hd, Rogue One: Una historia de Star Wars (2016) REMUX 1080p Latino mega latino, Rogue One: Una historia de Star Wars (2016) REMUX 1080p Latino 4k latino, Rogue One: Una historia de Star Wars (2016) REMUX 1080p Latino pelicula completa, Rogue One: Una historia de Star Wars (2016) REMUX 1080p Latino descargar gratis, descargar Rogue One: Una historia de Star Wars (2016) REMUX 1080p Latino pelicula latino, Rogue One: Una historia de Star Wars (2016) REMUX 1080p Latino 1 link mega, Rogue One: Una historia de Star Wars (2016) REMUX 1080p Latino 1 link google drive, Rogue One: Una historia de Star Wars (2016) REMUX 1080p Latino hd 1080p latino.
Comentarios 0