Rogue One: Una historia de Star Wars (2016) Full HD 1080p Latino

15.694 vistas
1 estrella2 estrellas3 estrellas4 estrellas5 estrellas (8 votos, promedio: 5,00 de 5)
Cargando...

Información de Rogue One: Una historia de Star Wars (2016) Full HD 1080p Latino

Datos de la película

  • Calidad: Full 1080p
  • Audio: Español Latino AC3 5.1 BLURAY - Ingles DTS 5.1 BLURAY
  • Subtitulos: Español Latino PGS - Ingles PGS
  • Resolución: 1920x1080p
  • Formato: MKV
  • Codec: H.264
  • Encoder: CinefiloCool
  • Mediainfo: Clic para Mostrar Datos Ver
  • Rogue One (2016) Full HD 1080p Latino-CMHDD.mkv
    Format                      : Matroska
    Format version              : Version 4
    File size                   : 7.92 GiB
    Duration                    : 2 h 13 min
    Overall bit rate            : 8 467 kb/s
    Movie name                  : Rogue One - Una Historia De Star Wars (2016) CinemaniaHDD.Net
    Encoded date                : UTC 2020-05-01 04:00:33
    Writing application         : mkvmerge v42.0.0 ('Overtime') 64-bit
    Writing library             : libebml v1.3.10 + libmatroska v1.5.2
    Attachments                 : CINEMANIAHD.png

    Video
    ID                          : 1
    Format                      : AVC
    Format/Info                 : Advanced Video Codec
    Format profile              : High@L4.1
    Format settings             : CABAC / 4 Ref Frames
    Format settings, CABAC      : Yes
    Format settings, ReFrames   : 4 frames
    Codec ID                    : V_MPEG4/ISO/AVC
    Duration                    : 2 h 13 min
    Bit rate                    : 6 295 kb/s
    Width                       : 1 920 pixels
    Height                      : 1 080 pixels
    Display aspect ratio        : 16:9
    Frame rate mode             : Constant
    Frame rate                  : 23.976 (24000/1001) FPS
    Color space                 : YUV
    Chroma subsampling          : 4:2:0
    Bit depth                   : 8 bits
    Scan type                   : Progressive
    Bits/(Pixel*Frame)          : 0.127
    Stream size                 : 5.89 GiB (74%)
    Title                       : Full HD1080p [CinemaniaHDD]
    Writing library             : x264 core 157 r2935 545de2f
    Encoding settings           : cabac=1 / ref=4 / deblock=1:0:0 / analyse=0x3:0x133 / me=tesa / subme=11 / psy=1 / psy_rd=1.00:0.00 / mixed_ref=1 / me_range=24 / chroma_me=1 / trellis=2 / 8x8dct=1 / cqm=0 / deadzone=21,11 / fast_pskip=0 / chroma_qp_offset=-2 / threads=34 / lookahead_threads=8 / sliced_threads=0 / nr=0 / decimate=1 / interlaced=0 / bluray_compat=0 / constrained_intra=0 / bframes=16 / b_pyramid=2 / b_adapt=2 / b_bias=0 / direct=3 / weightb=1 / open_gop=0 / weightp=2 / keyint=240 / keyint_min=24 / scenecut=40 / intra_refresh=0 / rc_lookahead=60 / rc=crf / mbtree=1 / crf=20.0 / qcomp=0.60 / qpmin=0 / qpmax=69 / qpstep=4 / vbv_maxrate=62500 / vbv_bufsize=78125 / crf_max=0.0 / nal_hrd=none / filler=0 / ip_ratio=1.40 / aq=1:1.00
    Default                     : Yes
    Forced                      : Yes
    Color range                 : Limited
    Color primaries             : BT.709
    Transfer characteristics    : BT.709
    Matrix coefficients         : BT.709

    Audio #1
    ID                          : 2
    Format                      : AC-3
    Format/Info                 : Audio Coding 3
    Commercial name             : Dolby Digital
    Codec ID                    : A_AC3
    Duration                    : 2 h 13 min
    Bit rate mode               : Constant
    Bit rate                    : 640 kb/s
    Channel(s)                  : 6 channels
    Channel layout              : L R C LFE Ls Rs
    Sampling rate               : 48.0 kHz
    Frame rate                  : 31.250 FPS (1536 SPF)
    Bit depth                   : 16 bits
    Compression mode            : Lossy
    Stream size                 : 613 MiB (8%)
    Title                       : Español Latino [CinemaniaHDD]
    Language                    : Spanish
    Service kind                : Complete Main
    Default                     : Yes
    Forced                      : No

    Audio #2
    ID                          : 3
    Format                      : DTS
    Format/Info                 : Digital Theater Systems
    Codec ID                    : A_DTS
    Duration                    : 2 h 13 min
    Bit rate mode               : Constant
    Bit rate                    : 1 509 kb/s
    Channel(s)                  : 6 channels
    Channel layout              : C L R Ls Rs LFE
    Sampling rate               : 48.0 kHz
    Frame rate                  : 93.750 FPS (512 SPF)
    Bit depth                   : 24 bits
    Compression mode            : Lossy
    Stream size                 : 1.41 GiB (18%)
    Title                       : Ingles [CinemaniaHDD]
    Language                    : English
    Default                     : No
    Forced                      : No

    Text #1
    ID                          : 4
    Format                      : PGS
    Muxing mode                 : zlib
    Codec ID                    : S_HDMV/PGS
    Codec ID/Info               : Picture based subtitle format used on BDs/HD-DVDs
    Duration                    : 1 h 23 min
    Bit rate                    : 235 b/s
    Count of elements           : 54
    Stream size                 : 144 KiB (0%)
    Title                       : Forzados-PGS [CinemaniaHDD]
    Language                    : Spanish
    Default                     : Yes
    Forced                      : No

    Text #2
    ID                          : 5
    Format                      : PGS
    Muxing mode                 : zlib
    Codec ID                    : S_HDMV/PGS
    Codec ID/Info               : Picture based subtitle format used on BDs/HD-DVDs
    Duration                    : 2 h 5 min
    Bit rate                    : 30.2 kb/s
    Count of elements           : 3002
    Stream size                 : 27.1 MiB (0%)
    Title                       : Español-PGS [CinemaniaHDD]
    Language                    : Spanish
    Default                     : No
    Forced                      : No

    Text #3
    ID                          : 6
    Format                      : PGS
    Muxing mode                 : zlib
    Codec ID                    : S_HDMV/PGS
    Codec ID/Info               : Picture based subtitle format used on BDs/HD-DVDs
    Duration                    : 2 h 5 min
    Bit rate                    : 36.0 kb/s
    Count of elements           : 3666
    Stream size                 : 32.3 MiB (0%)
    Title                       : Ingles-PGS [CinemaniaHDD]
    Language                    : English
    Default                     : No
    Forced                      : No

    Text #4
    ID                          : 7
    Format                      : UTF-8
    Codec ID                    : S_TEXT/UTF8
    Codec ID/Info               : UTF-8 Plain Text
    Duration                    : 1 h 26 min
    Bit rate                    : 0 b/s
    Count of elements           : 19
    Stream size                 : 551 Bytes (0%)
    Title                       : Forzados-SRT [CinemaniaHDD]
    Language                    : Spanish
    Default                     : No
    Forced                      : No

    Text #5
    ID                          : 8
    Format                      : UTF-8
    Codec ID                    : S_TEXT/UTF8
    Codec ID/Info               : UTF-8 Plain Text
    Duration                    : 2 h 5 min
    Bit rate                    : 47 b/s
    Count of elements           : 1498
    Stream size                 : 44.0 KiB (0%)
    Title                       : Español-SRT [CinemaniaHDD]
    Language                    : Spanish
    Default                     : No
    Forced                      : No

    Menu
    00:00:00.000                : en:"He's Come For Us"
    00:02:34.654                : en:Unfinished Business
    00:07:46.465                : en:Jyn In Prison
    00:08:42.813                : en:Ring Of Kafrene
    00:11:04.622                : en:An Urgent Message
    00:12:21.198                : en:Wobani Prison Break
    00:13:41.153                : en:Rebel Interrogation
    00:17:19.913                : en:Mission Departure
    00:20:09.541                : en:Saw Gerrera
    00:21:54.771                : en:Krennic And Tarkin
    00:23:47.092                : en:Jyn's Dream
    00:24:31.386                : en:Scouting Jedha Citym
    00:26:53.444                : en:Bor Gullet
    00:27:46.623                : en:Guardians Of The Whills
    00:30:37.293                : en:Holy City Ambush
    00:33:53.406                : en:"Let Them Pass"
    00:37:11.270                : en:Saw's Catacombs
    00:42:30.089                : en:Galen's Message
    00:47:16.124                : en:Jedha Escape
    00:51:04.144                : en:Tarkin Commands
    00:52:23.723                : en:Race To Eadu
    00:55:53.266                : en:Eadu Crash
    00:59:48.251                : en:Scouting Eadu
    01:02:07.807                : en:Krennic And Galen
    01:05:25.504                : en:Attack On Eadu
    01:10:24.094                : en:Eadu Aftermath
    01:12:49.531                : en:Mustafar
    01:16:28.458                : en:Jyn Before The Council
    01:19:04.322                : en:"May The Force Be With Us"
    01:21:55.160                : en:Rogue One Launches
    01:23:25.667                : en:Scarif Gate
    01:25:58.986                : en:10 Men Like 100
    01:27:34.957                : en:Imperial Inspection
    01:29:57.308                : en:Ground Forces
    01:31:53.841                : en:The Battle Begins
    01:34:18.736                : en:Scrambling The Rebel Fleet
    01:36:07.511                : en:Sowing Confusion
    01:37:48.237                : en:Rebel Reinforcements
    01:40:27.604                : en:Beach Battle
    01:42:44.074                : en:Master Switch
    01:45:26.778                : en:Stardust
    01:47:55.010                : en:Data Vault
    01:50:31.416                : en:Sacrifices
    01:53:28.885                : en:"We Have The Plans"
    01:55:46.272                : en:Final Confrontation
    01:59:23.447                : en:Transmission Received
    02:01:11.347                : en:Fire When Ready
    02:03:15.596                : en:Hope
    02:05:42.117                : en:End Credits

  • Peso: 7.92 GB

Sinopsis

Descargar Rogue One: Una historia de Star Wars (2016) Full HD 1080p Latino. El Imperio Galáctico ha terminado de construir el arma más poderosa de todas, la Estrella de la muerte, pero un grupo de rebeldes decide realizar una misión de muy alto riesgo: robar los planos de dicha estación antes de que entre en operaciones, mientras se enfrentan también al poderoso Lord Sith conocido como Darth Vader, discípulo del despiadado Emperador Palpatine.

Nota: Resubida y Actualizada, Intro Con Textos En Español 🙂

Ficha técnica

Video trailer de la película

Enlaces de descarga

Rip de Bluray

Descargar Rogue One: Una historia de Star Wars (2016) Full HD 1080p Latino




Aportes de DPeliculasHDmega la pass es:dpeliculashdmega.org Aportes de CinemaniaHD la pass es:cinemaniahdd.com

Películas relacionadas

  • Viernes 13 Parte X: Jason X (2001) 1080p Latino

    Viernes 13 Parte X: Jason X (2001) 1080p Latino

    2001
    Viernes 13 Parte X: Jason X (2001) 1080p Latino

    0.0 1h 31m 2001

    Descargar Viernes 13 Parte X: Jason X (2001) 1080p Latino. En el año 2455, Old Earth es ahora un planeta...

    Director: Walter Gasparovic

    Género: Ciencia ficción

    Actores: Yani Gellman

  • The Debt Collector 2 (2020) Full HD 1080p Latino

    The Debt Collector 2 (2020) Full HD 1080p Latino

    2020
    The Debt Collector 2 (2020) Full HD 1080p Latino

    0.0 1h 37m 2020

    French y Sue trabajan en lo que mejor se les da -romper cráneos y aplastar huesos- mientras persiguen...

    Director: Jesse V. Johnson

    Género: Acción

    Actores: Vladimir Kulich

  • The Debt Collector 2 (2020) HD 1080p Latino

    The Debt Collector 2 (2020) HD 1080p Latino

    2020
    The Debt Collector 2 (2020) HD 1080p Latino

    0.0 1h 37m 2020

    French y Sue trabajan en lo que mejor se les da -romper cráneos y aplastar huesos- mientras persiguen...

    Director: Jesse V. Johnson

    Género: Acción

    Actores: Vladimir Kulich

  • The Debt Collector 2 (2020) REMUX 1080p Latino

    The Debt Collector 2 (2020) REMUX 1080p Latino

    2020
    The Debt Collector 2 (2020) REMUX 1080p Latino

    0.0 1h 37m 2020

    French y Sue trabajan en lo que mejor se les da -romper cráneos y aplastar huesos- mientras persiguen...

    Director: Jesse V. Johnson

    Género: Acción

    Actores: Vladimir Kulich

  • Utopia (2020) Temporada 1 AMZN WEB-DL 1080p Latino

    Utopia (2020) Temporada 1 AMZN WEB-DL 1080p Latino

    2020
    Utopia (2020) Temporada 1 AMZN WEB-DL 1080p Latino

    5.0 0h 52m 2020

    Utopía es un thriller conspirativo sobre un grupo de jóvenes fanáticos que descubren que...

    Director: Gillian Flynn

    Género: Action & Adventure

    Actores: Sasha Lane

Comentarios 31
  • Juan Cortes - 05 enero, 2018

    buenas noches , podrian subirla a google drive , con el encriptado de agregar a jdownloader para que no los borren , gracias son la mejor pagina, saludos de colombia.

    • dpelis - 06 enero, 2018

      agregado…

  • Tio Higuera - 05 enero, 2018

    Buena pelicula. de casualidad la subirán a Google drive?

  • guimo - 08 diciembre, 2017

    busco esta pelicula pero mayormente los links ya estan caidos, aprte de eso despues de mucho tiempo ingreso a esta pagina siempe me gusto por sus aportes, mis mas sinceras felicitaciones

  • Andres - 18 junio, 2017

    No se si alcanzare a bajar todas las partes antes de que se borren, pero les doy infinitas gracias por tanto esfuerzo por brindarnos tan buena calidad sin cobrar nada mas de lo que nosotros querramos abonar. Un abrazo desde Argentina.

    • dpelis - 18 junio, 2017

      de nada, saludos

  • Andres - 17 junio, 2017

    Hola que tal podrian resubir si son tan amables la pelicula Rogue One a Uptobox ya que todos los links estan caidos. A ello se le suman las restricciones que ultimamente ha puesto Mega. Gracias!!!

    • dpelis - 18 junio, 2017

      se lo he agregado por unica vez, no resubire mas. saludos

  • Andres - 14 junio, 2017

    Todos los links de esta pelicula estan caidos al dia de hoy (14/06/17).

    • dpelis - 15 junio, 2017

      LINKS DE 1fichier y mega disponible, los demas murieron. si necesita que resuban en los mismo server porfavor reportarlos en el paste

      • Andres - 17 junio, 2017

        Lo que pasa es que en el paste no hay ningun lugar para reportar links caidos!!!

        • dpelis - 18 junio, 2017

          en el paste, claro si es miembro vip. saludos

  • AngelesNegros - 25 marzo, 2017

    ¡Gracias por la película! Ahora, ya podremos verla en la comodidad del hogar.

  • Isaí - 24 marzo, 2017

    Gracias por aclarar lo de los Links por cierto tengo una duda respecto al bitrate de las películas en su carátula plateada es 4000kbps cómo la carátula negra o es variable o cómo sería? Gracias de antemano.

    • dpelis - 24 marzo, 2017

      caratura negra es fijo. 4000, gris es variable. lo elige el programa para mejor calidad

  • Fernando - 23 marzo, 2017

    Los enlaces de Mega no están funcionando, gracias.

    • dpelis - 23 marzo, 2017

      enlaces funcionando, mire los pasos para descargar

      • Fernando - 24 marzo, 2017

        Negativo apreciado admin

        • AngelesNegros - 25 marzo, 2017

          ¡Hola Fernando! Yo acabo de descargar sin ningún problema.

  • ANGEL DAVID - 23 marzo, 2017

    hola dpeliculashdmega una pregunta poque el png de las peliculas lo hacen como en la otra web osea la portada de las peliculas grises igual de grande si me explico por ejemplo la portada gris de la otra web es un poco mas grande y mejor calidad que esta portada que publican solo es un punto de vista gracias

    • dpelis - 24 marzo, 2017

      lo hare, pero en unos dias, saludos

  • isarock - 23 marzo, 2017

    Es joda?…no van a ponerlo en ingles DTS??

    • dpelis - 23 marzo, 2017

      hola. error de dedo, es Audio DTS ingles y audi ac3 latino de bluray.

  • carlos - 23 marzo, 2017

    links caidos

    • dpelis - 23 marzo, 2017

      links buenos, seguir pasos para descargar

  • Isaí - 23 marzo, 2017

    Muchas gracias por la subida, pero me salen caídos los links de Mega.

    • dpelis - 23 marzo, 2017

      links buenos, seguir pasos para descargar

      • José - 26 mayo, 2017

        Amigos, los links ya no existen.

        • dpelis - 26 mayo, 2017

          reparados

          • José - 27 mayo, 2017

            Muchas gracias.