Rogue City (2020) NF WEB-DL 1080p Latino

49 vistas
1 estrella2 estrellas3 estrellas4 estrellas5 estrellas (1 votos, promedio: 5,00 de 5)
Cargando...

Información de Rogue City (2020) NF WEB-DL 1080p Latino

Datos de la película

  • Calidad: WEBDL
  • Audio: Español Latino AC3 5.1 Netflix - Ingles AC3 5.1 Netflix
  • Subtitulos: Español Latino SRT- FORZADOS SRT
  • Resolución: 1920x1080
  • Formato: MKV
  • Codec: H.264
  • Encoder: cinemaniahdd
  • Mediainfo: Clic para Mostrar Datos Ver
  • Rogue City (2020) NF WEB-DL 1080p Latino [CNMNHDD].mkv
    Format                      : Matroska
    Format version              : Version 4
    File size                   : 3.17 GiB
    Duration                    : 1 h 56 min
    Overall bit rate mode       : Variable
    Overall bit rate            : 3 908 kb/s
    Movie name                  : Rogue City (2020) CinemaniaHDD.Net
    Encoded date                : UTC 2020-10-30 08:00:11
    Writing application         : mkvmerge v51.0.0 ('I Wish') 64-bit
    Writing library             : libebml v1.4.0 + libmatroska v1.6.2

    Video
    ID                          : 1
    Format                      : AVC
    Format/Info                 : Advanced Video Codec
    Format profile              : Main@L4
    Format settings             : CABAC / 3 Ref Frames
    Format settings, CABAC      : Yes
    Format settings, Reference  : 3 frames
    Codec ID                    : V_MPEG4/ISO/AVC
    Duration                    : 1 h 56 min
    Bit rate mode               : Variable
    Bit rate                    : 3 160 kb/s
    Maximum bit rate            : 4 740 kb/s
    Width                       : 1 920 pixels
    Height                      : 1 080 pixels
    Display aspect ratio        : 16:9
    Frame rate mode             : Constant
    Frame rate                  : 24.000 FPS
    Color space                 : YUV
    Chroma subsampling          : 4:2:0
    Bit depth                   : 8 bits
    Scan type                   : Progressive
    Bits/(Pixel*Frame)          : 0.063
    Stream size                 : 2.55 GiB (80%)
    Title                       : CinemaniaHDD
    Writing library             : x264 core 148 r2722 1b0121b
    Encoding settings           : cabac=1 / ref=3 / deblock=1:0:0 / analyse=0x1:0x111 / me=umh / subme=10 / psy=1 / psy_rd=1.00:0.00 / mixed_ref=1 / me_range=24 / chroma_me=1 / trellis=2 / 8x8dct=0 / cqm=0 / deadzone=21,11 / fast_pskip=1 / chroma_qp_offset=-2 / threads=6 / lookahead_threads=1 / sliced_threads=0 / nr=0 / decimate=1 / interlaced=0 / bluray_compat=0 / stitchable=1 / constrained_intra=0 / bframes=2 / b_pyramid=0 / b_adapt=2 / b_bias=0 / direct=3 / weightb=1 / open_gop=0 / weightp=2 / keyint=250 / keyint_min=24 / scenecut=0 / intra_refresh=0 / rc_lookahead=48 / rc=2pass / mbtree=1 / bitrate=3160 / ratetol=1.0 / qcomp=0.50 / qpmin=6 / qpmax=51 / qpstep=4 / cplxblur=20.0 / qblur=0.5 / vbv_maxrate=4740 / vbv_bufsize=6320 / nal_hrd=vbr / filler=0 / ip_ratio=1.40 / aq=1:1.00
    Default                     : Yes
    Forced                      : No

    Audio #1
    ID                          : 2
    Format                      : AC-3
    Format/Info                 : Audio Coding 3
    Commercial name             : Dolby Digital
    Codec ID                    : A_AC3
    Duration                    : 1 h 56 min
    Bit rate mode               : Constant
    Bit rate                    : 384 kb/s
    Channel(s)                  : 6 channels
    Channel layout              : L R C LFE Ls Rs
    Sampling rate               : 48.0 kHz
    Frame rate                  : 31.250 FPS (1536 SPF)
    Compression mode            : Lossy
    Stream size                 : 319 MiB (10%)
    Title                       : Español latino [CinemaniaHDD]
    Language                    : Spanish
    Service kind                : Complete Main
    Default                     : Yes
    Forced                      : No

    Audio #2
    ID                          : 3
    Format                      : AC-3
    Format/Info                 : Audio Coding 3
    Commercial name             : Dolby Digital
    Codec ID                    : A_AC3
    Duration                    : 1 h 56 min
    Bit rate mode               : Constant
    Bit rate                    : 384 kb/s
    Channel(s)                  : 6 channels
    Channel layout              : L R C LFE Ls Rs
    Sampling rate               : 48.0 kHz
    Frame rate                  : 31.250 FPS (1536 SPF)
    Compression mode            : Lossy
    Stream size                 : 319 MiB (10%)
    Title                       : Inglés [CinemaniaHDD]
    Language                    : English
    Service kind                : Complete Main
    Default                     : No
    Forced                      : No

    Text #1
    ID                          : 4
    Format                      : UTF-8
    Codec ID                    : S_TEXT/UTF8
    Codec ID/Info               : UTF-8 Plain Text
    Duration                    : 1 h 54 min
    Bit rate                    : 0 b/s
    Count of elements           : 10
    Stream size                 : 225 Bytes (0%)
    Title                       : Forzados [CinemaniaHDD]
    Language                    : Spanish
    Default                     : Yes
    Forced                      : Yes

    Text #2
    ID                          : 5
    Format                      : UTF-8
    Codec ID                    : S_TEXT/UTF8
    Codec ID/Info               : UTF-8 Plain Text
    Duration                    : 1 h 54 min
    Bit rate                    : 38 b/s
    Count of elements           : 1052
    Stream size                 : 32.3 KiB (0%)
    Title                       : Español latino [CinemaniaHDD]
    Language                    : Spanish
    Default                     : No
    Forced                      : No

    Text #3
    ID                          : 6
    Format                      : UTF-8
    Codec ID                    : S_TEXT/UTF8
    Codec ID/Info               : UTF-8 Plain Text
    Duration                    : 1 h 51 min
    Bit rate                    : 48 b/s
    Count of elements           : 1381
    Stream size                 : 39.8 KiB (0%)
    Title                       : Inglés [CinemaniaHDD]
    Language                    : English
    Default                     : No
    Forced                      : No

  • Peso: 3.17 GiB

Sinopsis

Atrapado entre la corrupción de las fuerzas del orden y el enfrentamiento de bandas en Marsella, un leal policía toma las riendas del asunto para proteger a su equipo.

Ficha técnica

  • Titulo original: Bronx
  • Fecha de lanzamiento: 30-10-2020 (France)
  • Director: Olivier Marchal
  • Género: Netflix, Suspenso
  • Puntuación: 5.0 1 votos
  • Duración:
    0h 0m

Video trailer de la película

Enlaces de descarga

Rip de Bluray

Descargar Rogue City (2020) NF WEB-DL 1080p Latino




Aportes de DPeliculasHDmega la pass es:dpeliculashdmega.org Aportes de CinemaniaHD la pass es:cinemaniahdd.com
Guardado en : Netflix , Suspenso

Películas relacionadas

  • El día del fin del mundo (2020) 4K HDR SUB – CMHDD

    El día del fin del mundo (2020) 4K HDR SUB – CMHDD

    2020
    El día del fin del mundo (2020) 4K HDR SUB – CMHDD

    5.0 1h 59m 2020

    Un matrimonio a punto de separarse debe tratar de garantizar la seguridad de su hijo y ellos mismos cuando...

    Director: Ric Roman Waugh

    Género: Acción

    Actores: Tracey Bonner

  • Ava (2020) HD 1080p Latino

    Ava (2020) HD 1080p Latino

    2020
    Ava (2020) HD 1080p Latino

    5.0 1h 36m 2020

    Descargar Ava (2020) HD 1080p Latino. Ava es una mortífera asesina a sueldo que trabaja para una organización...

    Director: Tate Taylor

    Género: Acción

    Actores: Michel Muller

  • Ava (2020) PLACEBO Full HD 1080p Latino

    Ava (2020) PLACEBO Full HD 1080p Latino

    2020
    Ava (2020) PLACEBO Full HD 1080p Latino

    5.0 1h 36m 2020

    Descargar Ava (2020) PLACEBO Full HD 1080p Latino. Ava es una mortífera asesina a sueldo que trabaja...

    Director: Tate Taylor

    Género: Acción

    Actores: Michel Muller

  • Ava (2020) REMUX 1080p Latino

    Ava (2020) REMUX 1080p Latino

    2020
    Ava (2020) REMUX 1080p Latino

    0.0 1h 36m 2020

    Descargar Ava (2020) REMUX 1080p Latino. Ava es una mortífera asesina a sueldo que trabaja para una...

    Director: Tate Taylor

    Género: Acción

    Actores: Michel Muller

Comentarios 0