×

¿Problemas para descargar con Mozilla, EDGE? Deshabilita la opción "Abrir vinculos en una pestaña nueva" tal como lo muestra ésta imagen.

Rogue (2020) PLACEBO Full HD 1080p Latino

504 vistas

Información de Rogue (2020) PLACEBO Full HD 1080p Latino

Datos de la película

  • Calidad: Full 1080p
  • Audio: Se especifica abajo de la Sinopsis
  • Subtitulos: Español Latino PGS - Ingles PGS
  • Resolución: 1920x1080p
  • Formato: MKV
  • Codec: H.264
  • Encoder: Melkor
  • Mediainfo: Clic para Mostrar Datos Ver
  • Rogue (2020) PLACEBO Full HD 1080p Latino[CMHDD].mkv
    Format                      : Matroska
    Format version              : Version 4
    File size                   : 6.86 GiB
    Duration                    : 1 h 45 min
    Overall bit rate            : 9 266 kb/s
    Movie name                  : Rogue (2020) CinemaniaHDD.Net
    Encoded date                : UTC 2021-03-21 06:49:23
    Writing application         : mkvmerge v51.0.0 ('I Wish') 64-bit
    Writing library             : libebml v1.4.0 + libmatroska v1.6.2
    Attachments                 : CINEMANIAHD.png

    Video
    ID                          : 1
    Format                      : AVC
    Format/Info                 : Advanced Video Codec
    Format profile              : High@L4.1
    Format settings             : CABAC / 4 Ref Frames
    Format settings, CABAC      : Yes
    Format settings, Reference  : 4 frames
    Codec ID                    : V_MPEG4/ISO/AVC
    Duration                    : 1 h 45 min
    Bit rate                    : 6 440 kb/s
    Width                       : 1 920 pixels
    Height                      : 1 080 pixels
    Display aspect ratio        : 16:9
    Frame rate mode             : Constant
    Frame rate                  : 23.976 (24000/1001) FPS
    Color space                 : YUV
    Chroma subsampling          : 4:2:0
    Bit depth                   : 8 bits
    Scan type                   : Progressive
    Bits/(Pixel*Frame)          : 0.130
    Stream size                 : 4.77 GiB (70%)
    Title                       : Full HD1080p [CinemaniaHDD]
    Writing library             : x264 core 157 r2935 545de2f
    Encoding settings           : cabac=1 / ref=4 / deblock=1:0:0 / analyse=0x3:0x133 / me=tesa / subme=11 / psy=1 / psy_rd=1.00:0.00 / mixed_ref=1 / me_range=24 / chroma_me=1 / trellis=2 / 8x8dct=1 / cqm=0 / deadzone=21,11 / fast_pskip=0 / chroma_qp_offset=-2 / threads=24 / lookahead_threads=6 / sliced_threads=0 / nr=0 / decimate=1 / interlaced=0 / bluray_compat=0 / constrained_intra=0 / bframes=16 / b_pyramid=2 / b_adapt=2 / b_bias=0 / direct=3 / weightb=1 / open_gop=0 / weightp=2 / keyint=240 / keyint_min=24 / scenecut=40 / intra_refresh=0 / rc_lookahead=60 / rc=crf / mbtree=1 / crf=20.0 / qcomp=0.60 / qpmin=0 / qpmax=69 / qpstep=4 / vbv_maxrate=62500 / vbv_bufsize=78125 / crf_max=0.0 / nal_hrd=none / filler=0 / ip_ratio=1.40 / aq=1:1.00
    Default                     : Yes
    Forced                      : Yes
    Color range                 : Limited
    Color primaries             : BT.709
    Transfer characteristics    : BT.709
    Matrix coefficients         : BT.709

    Audio #1
    ID                          : 2
    Format                      : E-AC-3
    Format/Info                 : Enhanced AC-3
    Commercial name             : Dolby Digital Plus
    Codec ID                    : A_EAC3
    Duration                    : 1 h 45 min
    Bit rate mode               : Constant
    Bit rate                    : 640 kb/s
    Channel(s)                  : 6 channels
    Channel layout              : L R C LFE Ls Rs
    Sampling rate               : 48.0 kHz
    Frame rate                  : 31.250 FPS (1536 SPF)
    Compression mode            : Lossy
    Delay relative to video     : 199 ms
    Stream size                 : 485 MiB (7%)
    Title                       : Español Latino [CinemaniaHDD]
    Language                    : Spanish
    Service kind                : Complete Main
    Default                     : Yes
    Forced                      : Yes

    Audio #2
    ID                          : 3
    Format                      : DTS
    Format/Info                 : Digital Theater Systems
    Codec ID                    : A_DTS
    Duration                    : 1 h 45 min
    Bit rate mode               : Constant
    Bit rate                    : 1 509 kb/s
    Channel(s)                  : 6 channels
    Channel layout              : C L R Ls Rs LFE
    Sampling rate               : 48.0 kHz
    Frame rate                  : 93.750 FPS (512 SPF)
    Bit depth                   : 24 bits
    Compression mode            : Lossy
    Stream size                 : 1.12 GiB (16%)
    Title                       : Ingles [CinemaniaHDD]
    Language                    : English
    Default                     : No
    Forced                      : No

    Audio #3
    ID                          : 4
    Format                      : AC-3
    Format/Info                 : Audio Coding 3
    Commercial name             : Dolby Digital
    Codec ID                    : A_AC3
    Duration                    : 1 h 45 min
    Bit rate mode               : Constant
    Bit rate                    : 640 kb/s
    Channel(s)                  : 6 channels
    Channel layout              : L R C LFE Ls Rs
    Sampling rate               : 48.0 kHz
    Frame rate                  : 31.250 FPS (1536 SPF)
    Compression mode            : Lossy
    Delay relative to video     : 199 ms
    Stream size                 : 485 MiB (7%)
    Title                       : Español Latino AC3 [CinemaniaHDD]
    Language                    : Spanish
    Service kind                : Complete Main
    Default                     : No
    Forced                      : No

    Text #1
    ID                          : 5
    Format                      : PGS
    Muxing mode                 : zlib
    Codec ID                    : S_HDMV/PGS
    Codec ID/Info               : Picture based subtitle format used on BDs/HD-DVDs
    Duration                    : 1 h 44 min
    Bit rate                    : 28.2 kb/s
    Count of elements           : 2448
    Stream size                 : 21.0 MiB (0%)
    Title                       : Español-PGS [CinemaniaHDD]
    Language                    : Spanish
    Default                     : No
    Forced                      : No

    Text #2
    ID                          : 6
    Format                      : PGS
    Muxing mode                 : zlib
    Codec ID                    : S_HDMV/PGS
    Codec ID/Info               : Picture based subtitle format used on BDs/HD-DVDs
    Duration                    : 1 h 38 min
    Bit rate                    : 38.2 kb/s
    Count of elements           : 3190
    Stream size                 : 27.0 MiB (0%)
    Title                       : Ingles-PGS [CinemaniaHDD]
    Language                    : English
    Default                     : No
    Forced                      : No

    Text #3
    ID                          : 7
    Format                      : UTF-8
    Codec ID                    : S_TEXT/UTF8
    Codec ID/Info               : UTF-8 Plain Text
    Duration                    : 1 h 36 min
    Bit rate                    : 0 b/s
    Count of elements           : 4
    Stream size                 : 99.0 Bytes (0%)
    Title                       : Forzados-SRT [CinemaniaHDD]
    Language                    : Spanish
    Default                     : Yes
    Forced                      : Yes

    Text #4
    ID                          : 8
    Format                      : UTF-8
    Codec ID                    : S_TEXT/UTF8
    Codec ID/Info               : UTF-8 Plain Text
    Duration                    : 1 h 38 min
    Bit rate                    : 48 b/s
    Count of elements           : 1223
    Stream size                 : 35.5 KiB (0%)
    Title                       : Español-SRT [CinemaniaHDD]
    Language                    : Spanish
    Default                     : No
    Forced                      : No

    Menu
    00:00:00.000                : en:Chapter 1
    00:04:05.495                : en:Chapter 2
    00:10:55.446                : en:Chapter 3
    00:22:56.124                : en:Chapter 4
    00:29:20.884                : en:Chapter 5
    00:35:27.291                : en:Chapter 6
    00:42:17.785                : en:Chapter 7
    00:48:10.095                : en:Chapter 8
    00:55:41.129                : en:Chapter 9
    00:59:56.509                : en:Chapter 10
    01:06:03.167                : en:Chapter 11
    01:11:49.305                : en:Chapter 12
    01:19:04.406                : en:Chapter 13
    01:21:53.450                : en:Chapter 14
    01:29:26.903                : en:Chapter 15
    01:34:17.526                : en:Chapter 16

  • Peso: 6.86 GiB

Sinopsis

Descargar Rogue (2020) PLACEBO Full HD 1080p Latino. O’Hara es una mercenaria que dirige un escuadrón de soldados en su misión de rescatar rehenes en una parte remota de África. Desafortunadamente, la misión sale mal y el equipo queda varado, obligado a sobrevivir contra los rebeldes locales.

Español Latino EAC3 5.1 & AC3 5.1 WebDL – Ingles DTS 5.1 Bluray
Actualizado con mejor Audio Latino en 5.1!!

Ficha técnica

Video trailer de la película

Enlaces de descarga

Rip de Bluray

Descargar Rogue (2020) PLACEBO Full HD 1080p Latino




Aportes de DPeliculasHDmega la pass es:dpeliculashdmega.org Aportes de CinemaniaHD la pass es:cinemaniahdd.com

Películas relacionadas

descargar Rogue (2020) PLACEBO Full HD 1080p Latino Full 1080p 1080p gratis, Rogue (2020) PLACEBO Full HD 1080p Latino Full 1080p mega 1 link, Rogue (2020) PLACEBO Full HD 1080p Latino Full 1080p pelicula completa, descargar Rogue (2020) PLACEBO Full HD 1080p Latino Full 1080p gratis en mega.

Rogue (2020) PLACEBO Full HD 1080p Latino pelicula full hd, Rogue (2020) PLACEBO Full HD 1080p Latino mega latino, Rogue (2020) PLACEBO Full HD 1080p Latino 4k latino, Rogue (2020) PLACEBO Full HD 1080p Latino pelicula completa, Rogue (2020) PLACEBO Full HD 1080p Latino descargar gratis, descargar Rogue (2020) PLACEBO Full HD 1080p Latino pelicula latino, Rogue (2020) PLACEBO Full HD 1080p Latino 1 link mega, Rogue (2020) PLACEBO Full HD 1080p Latino 1 link google drive, Rogue (2020) PLACEBO Full HD 1080p Latino hd 1080p latino.
Comentarios 0