×

¿Problemas para descargar con Mozilla, EDGE? Deshabilita la opción "Abrir vinculos en una pestaña nueva" tal como lo muestra ésta imagen.

Rocketman (2019) REMUX 1080p Latino – CMHDD

228 vistas

Información de Rocketman (2019) REMUX 1080p Latino – CMHDD

Datos de la película

  • Calidad: Full 1080p
  • Audio: Se especifica abajo de la Sinopsis
  • Subtitulos: Español Latino PGS
  • Resolución: 1920x1080p
  • Formato: MKV
  • Codec: H.264
  • Encoder: Dracarys
  • Mediainfo: Clic para Mostrar Datos Ver
  • Format                      : Matroska
    Format version              : Version 4
    File size                   : 28.9 GiB
    Duration                    : 2 h 1 min
    Overall bit rate mode       : Variable
    Overall bit rate            : 34.1 Mb/s
    Movie name                  : Rocketman (2019) REMUX 1080p Latino - CMHDD
    Encoded date                : UTC 2022-03-16 02:41:55
    Writing application         : mkvmerge v17.0.0 ('Be Ur Friend') 64-bit
    Writing library             : libebml v1.3.5 + libmatroska v1.4.8

    Video
    ID                          : 1
    Format                      : AVC
    Format/Info                 : Advanced Video Codec
    Format profile              : High@L4.1
    Format settings             : CABAC / 4 Ref Frames
    Format settings, CABAC      : Yes
    Format settings, Reference  : 4 frames
    Codec ID                    : V_MPEG4/ISO/AVC
    Duration                    : 2 h 1 min
    Bit rate mode               : Variable
    Bit rate                    : 29.2 Mb/s
    Maximum bit rate            : 32.6 Mb/s
    Width                       : 1 920 pixels
    Height                      : 1 080 pixels
    Display aspect ratio        : 16:9
    Frame rate mode             : Constant
    Frame rate                  : 23.976 (24000/1001) FPS
    Color space                 : YUV
    Chroma subsampling          : 4:2:0
    Bit depth                   : 8 bits
    Scan type                   : Progressive
    Bits/(Pixel*Frame)          : 0.588
    Stream size                 : 24.8 GiB (86%)
    Default                     : Yes
    Forced                      : No

    Audio #1
    ID                          : 2
    Format                      : MLP FBA 16-ch
    Format/Info                 : Meridian Lossless Packing FBA with 16-channel presentation
    Commercial name             : Dolby TrueHD with Dolby Atmos
    Codec ID                    : A_TRUEHD
    Duration                    : 2 h 1 min
    Bit rate mode               : Variable
    Bit rate                    : 4 133 kb/s
    Maximum bit rate            : 7 836 kb/s
    Channel(s)                  : 8 channels
    Channel layout              : L R C LFE Ls Rs Lb Rb
    Sampling rate               : 48.0 kHz
    Frame rate                  : 1 200.000 FPS (40 SPF)
    Compression mode            : Lossless
    Stream size                 : 3.50 GiB (12%)
    Language                    : English
    Default                     : No
    Forced                      : No
    Number of dynamic objects   : 11
    Bed channel count           : 1 channel
    Bed channel configuration   : LFE

    Audio #2
    ID                          : 3
    Format                      : AC-3
    Format/Info                 : Audio Coding 3
    Commercial name             : Dolby Digital
    Codec ID                    : A_AC3
    Duration                    : 2 h 1 min
    Bit rate mode               : Constant
    Bit rate                    : 640 kb/s
    Channel(s)                  : 6 channels
    Channel layout              : L R C LFE Ls Rs
    Sampling rate               : 48.0 kHz
    Frame rate                  : 31.250 FPS (1536 SPF)
    Compression mode            : Lossy
    Stream size                 : 555 MiB (2%)
    Language                    : Spanish
    Service kind                : Complete Main
    Default                     : Yes
    Forced                      : No

    Text
    ID                          : 4
    Format                      : PGS
    Muxing mode                 : zlib
    Codec ID                    : S_HDMV/PGS
    Codec ID/Info               : Picture based subtitle format used on BDs/HD-DVDs
    Duration                    : 1 h 58 min
    Bit rate                    : 33.4 kb/s
    Count of elements           : 2700
    Stream size                 : 28.3 MiB (0%)
    Language                    : Spanish
    Default                     : No
    Forced                      : No

    Menu
    00:00:00.000                : en:Chapter 1
    00:05:50.725                : en:Chapter 2
    00:11:20.805                : en:Chapter 3
    00:18:43.080                : en:Chapter 4
    00:22:39.858                : en:Chapter 5
    00:28:01.054                : en:Chapter 6
    00:34:21.392                : en:Chapter 7
    00:38:35.229                : en:Chapter 8
    00:42:52.444                : en:Chapter 9
    00:50:40.579                : en:Chapter 10
    00:57:30.905                : en:Chapter 11
    01:04:06.175                : en:Chapter 12
    01:09:28.914                : en:Chapter 13
    01:16:10.941                : en:Chapter 14
    01:24:44.079                : en:Chapter 15
    01:29:09.344                : en:Chapter 16
    01:35:22.383                : en:Chapter 17
    01:42:46.243                : en:Chapter 18
    01:51:11.831                : en:Chapter 19
    01:55:25.335                : en:Chapter 20

  • Peso: 28.9 GiB

Sinopsis

‘Rocketman’ es la historia de Elton John, desde sus años como niño prodigio del piano en la Royal Academy of Music hasta llegar a ser una superestrella de fama mundial gracias a su influyente y duradera asociación con su colaborador y letrista Bernie Taupin.

 

Latino: AC3 5.1  –  Inglés: TrueHD 7.1

Ficha técnica

Video trailer de la película

Enlaces de descarga

Rip de Bluray

Descargar Rocketman (2019) REMUX 1080p Latino – CMHDD


Aportes de DPeliculasHDmega la pass es:dpeliculashdmega.org Aportes de CinemaniaHD la pass es:cinemaniahdd.com
Guardado en : Drama , Historia , Música

Películas relacionadas

  • Blonde (2022) NF WEB-DL 1080p Latino

    Blonde (2022) NF WEB-DL 1080p Latino

    2022
    Blonde (2022) NF WEB-DL 1080p Latino

    2h 46m 2022

    Descargar Blonde (2022) NF WEB-DL 1080p Latino. Basada en el bestseller de la cinco veces finalista al...

    Director: Kristin Bree Calabrese

    Género: Drama

    Actores: Xavier Samuel

  • Infiniti (2022) Primera Temporada WEB-DL 1080p Latino

    Infiniti (2022) Primera Temporada WEB-DL 1080p Latino

    2022
    Infiniti (2022) Primera Temporada WEB-DL 1080p Latino

    0h 52m 2022

    La ISS, la Estación Espacial Internacional se ha quedado en silencio. La tripulación está en peligro....

    Director: Stéphane Pannetier

    Género: Drama

    Actores: Vlad Ivanov

  • Athena (2022) NF WEB-DL 1080p Latino

    Athena (2022) NF WEB-DL 1080p Latino

    2022
    Athena (2022) NF WEB-DL 1080p Latino

    1h 37m 2022

    Descargar Athena (2022) NF WEB-DL 1080p Latino. Horas después de la trágica muerte de su hermano menor...

    Director: Romain Gavras

    Género: Acción

    Actores: Tarek Haddaji

descargar Rocketman (2019) REMUX 1080p Latino – CMHDD Full 1080p 1080p gratis, Rocketman (2019) REMUX 1080p Latino – CMHDD Full 1080p mega 1 link, Rocketman (2019) REMUX 1080p Latino – CMHDD Full 1080p pelicula completa, descargar Rocketman (2019) REMUX 1080p Latino – CMHDD Full 1080p gratis en mega.

Rocketman (2019) REMUX 1080p Latino – CMHDD pelicula full hd, Rocketman (2019) REMUX 1080p Latino – CMHDD mega latino, Rocketman (2019) REMUX 1080p Latino – CMHDD 4k latino, Rocketman (2019) REMUX 1080p Latino – CMHDD pelicula completa, Rocketman (2019) REMUX 1080p Latino – CMHDD descargar gratis, descargar Rocketman (2019) REMUX 1080p Latino – CMHDD pelicula latino, Rocketman (2019) REMUX 1080p Latino – CMHDD 1 link mega, Rocketman (2019) REMUX 1080p Latino – CMHDD 1 link google drive, Rocketman (2019) REMUX 1080p Latino – CMHDD hd 1080p latino.
Comentarios 0