×

¿Problemas para descargar con Mozilla, EDGE? Deshabilita la opción "Abrir vinculos en una pestaña nueva" tal como lo muestra ésta imagen.

Rock Dog 3: Rockeando juntos (2023) PLACEBO Full HD 1080p Latino

233 vistas

Información de Rock Dog 3: Rockeando juntos (2023) PLACEBO Full HD 1080p Latino

Datos de la película

  • Calidad: Full 1080p
  • Audio: Español Latino AC3 2.0 WEB-DL - Ingles DTS 5.1 BLURAY
  • Subtitulos: Español Latino PGS - Ingles PGS
  • Resolución: 1920x1080p
  • Formato: MKV
  • Codec: H.264
  • Encoder: Melkor
  • Mediainfo: Clic para Mostrar Datos Ver
  • Rock Dog 3. Rockeando juntos (2023) PLACEBO 1080p Latino.mkv
    Format                      : Matroska
    Format version              : Version 4
    File size                   : 4.54 GiB
    Duration                    : 1 h 27 min
    Overall bit rate            : 7 442 kb/s
    Movie name                  : Rock Dog 3. Battle the Beat (2023) CinemaniaHDD.Net
    Encoded date                : UTC 2023-04-27 04:24:40
    Writing application         : mkvmerge v56.1.0 ('My Friend') 64-bit
    Writing library             : libebml v1.4.2 + libmatroska v1.6.4
    Attachments                 : CINEMANIAHD.png
    Site                        : CinemaniaHDD.Net
    Uploader                    : Melkor

    Video
    ID                          : 1
    Format                      : AVC
    Format/Info                 : Advanced Video Codec
    Format profile              : High@L4.1
    Format settings             : CABAC / 4 Ref Frames
    Format settings, CABAC      : Yes
    Format settings, Reference  : 4 frames
    Codec ID                    : V_MPEG4/ISO/AVC
    Duration                    : 1 h 27 min
    Bit rate                    : 5 628 kb/s
    Width                       : 1 920 pixels
    Height                      : 1 080 pixels
    Display aspect ratio        : 16:9
    Frame rate mode             : Constant
    Frame rate                  : 23.976 (24000/1001) FPS
    Color space                 : YUV
    Chroma subsampling          : 4:2:0
    Bit depth                   : 8 bits
    Scan type                   : Progressive
    Bits/(Pixel*Frame)          : 0.113
    Stream size                 : 3.43 GiB (76%)
    Title                       : Full HD1080p [CinemaniaHDD]
    Writing library             : x264 core 163 r3059 b684ebe0
    Encoding settings           : cabac=1 / ref=4 / deblock=1:0:0 / analyse=0x3:0x133 / me=tesa / subme=11 / psy=1 / psy_rd=1.00:0.00 / mixed_ref=1 / me_range=24 / chroma_me=1 / trellis=2 / 8x8dct=1 / cqm=0 / deadzone=21,11 / fast_pskip=0 / chroma_qp_offset=-2 / threads=24 / lookahead_threads=6 / sliced_threads=0 / nr=0 / decimate=1 / interlaced=0 / bluray_compat=0 / constrained_intra=0 / bframes=16 / b_pyramid=2 / b_adapt=2 / b_bias=0 / direct=3 / weightb=1 / open_gop=0 / weightp=2 / keyint=240 / keyint_min=24 / scenecut=40 / intra_refresh=0 / rc_lookahead=60 / rc=crf / mbtree=1 / crf=19.0 / qcomp=0.60 / qpmin=0 / qpmax=69 / qpstep=4 / vbv_maxrate=62500 / vbv_bufsize=78125 / crf_max=0.0 / nal_hrd=none / filler=0 / ip_ratio=1.40 / aq=1:1.00
    Default                     : Yes
    Forced                      : Yes
    Color range                 : Limited
    Color primaries             : BT.709
    Transfer characteristics    : BT.709
    Matrix coefficients         : BT.709

    Audio #1
    ID                          : 2
    Format                      : AC-3
    Format/Info                 : Audio Coding 3
    Commercial name             : Dolby Digital
    Codec ID                    : A_AC3
    Duration                    : 1 h 27 min
    Bit rate mode               : Constant
    Bit rate                    : 256 kb/s
    Channel(s)                  : 2 channels
    Channel layout              : L R
    Sampling rate               : 48.0 kHz
    Frame rate                  : 31.250 FPS (1536 SPF)
    Compression mode            : Lossy
    Stream size                 : 160 MiB (3%)
    Title                       : Español Latino [CinemaniaHDD]
    Language                    : Spanish
    Service kind                : Complete Main
    Default                     : Yes
    Forced                      : Yes

    Audio #2
    ID                          : 3
    Format                      : DTS
    Format/Info                 : Digital Theater Systems
    Codec ID                    : A_DTS
    Duration                    : 1 h 27 min
    Bit rate mode               : Constant
    Bit rate                    : 1 509 kb/s
    Channel(s)                  : 6 channels
    Channel layout              : C L R Ls Rs LFE
    Sampling rate               : 48.0 kHz
    Frame rate                  : 93.750 FPS (512 SPF)
    Bit depth                   : 24 bits
    Compression mode            : Lossy
    Stream size                 : 943 MiB (20%)
    Title                       : Ingles [CinemaniaHDD]
    Language                    : English
    Default                     : No
    Forced                      : No

    Text #1
    ID                          : 4
    ID in the original source m : 4609 (0x1201)
    Format                      : PGS
    Muxing mode                 : zlib
    Codec ID                    : S_HDMV/PGS
    Codec ID/Info               : Picture based subtitle format used on BDs/HD-DVDs
    Duration                    : 1 h 26 min
    Bit rate                    : 39.9 kb/s
    Count of elements           : 2416
    Stream size                 : 24.5 MiB (1%)
    Title                       : Español-PGS [CinemaniaHDD]
    Language                    : Spanish
    Default                     : No
    Forced                      : No
    Original source medium      : Blu-ray

    Text #2
    ID                          : 5
    ID in the original source m : 4608 (0x1200)
    Format                      : PGS
    Muxing mode                 : zlib
    Codec ID                    : S_HDMV/PGS
    Codec ID/Info               : Picture based subtitle format used on BDs/HD-DVDs
    Duration                    : 1 h 26 min
    Bit rate                    : 49.4 kb/s
    Count of elements           : 3180
    Stream size                 : 30.5 MiB (1%)
    Title                       : Ingles [CinemaniaHDD]
    Language                    : English
    Default                     : No
    Forced                      : No
    Original source medium      : Blu-ray

    Text #3
    ID                          : 6
    Format                      : UTF-8
    Codec ID                    : S_TEXT/UTF8
    Codec ID/Info               : UTF-8 Plain Text
    Duration                    : 1 h 3 min
    Bit rate                    : 0 b/s
    Count of elements           : 5
    Stream size                 : 125 Bytes (0%)
    Title                       : Forzados-SRT [CinemaniaHDD]
    Language                    : Spanish
    Default                     : Yes
    Forced                      : Yes

    Text #4
    ID                          : 7
    Format                      : UTF-8
    Codec ID                    : S_TEXT/UTF8
    Codec ID/Info               : UTF-8 Plain Text
    Duration                    : 1 h 26 min
    Bit rate                    : 67 b/s
    Count of elements           : 1208
    Stream size                 : 42.6 KiB (0%)
    Title                       : Español-SRT [CinemaniaHDD]
    Language                    : Spanish
    Default                     : No
    Forced                      : No

    Menu
    00:00:00.000                : Chapter 01
    00:06:55.415                : Chapter 02
    00:12:05.725                : Chapter 03
    00:17:27.046                : Chapter 04
    00:24:26.465                : Chapter 05
    00:31:22.881                : Chapter 06
    00:40:02.400                : Chapter 07
    00:44:08.646                : Chapter 08
    00:50:06.211                : Chapter 09
    00:54:35.272                : Chapter 10
    00:58:58.535                : Chapter 11
    01:02:50.767                : Chapter 12
    01:08:55.840                : Chapter 13
    01:14:59.495                : Chapter 14
    01:18:39.715                : Chapter 15
    01:23:27.002                : Chapter 16

  • Peso: 4.54 GiB

Sinopsis

Descargar Rock Dog 3: Rockeando juntos (2023) PLACEBO Full HD 1080p Latino. Después de recorrer el mundo, Bodi se toma un tiempo libre y regresa a su pueblo. Cuando se entera de que el grupo de chicas, K-9, no sabe quién es la leyenda del rock Angus Scattergood, se ve obligado a unirse al concurso musical, “Battle the Beat”, para inspirar a una nueva generación de estrellas del rock. Pero después de unirse al programa, Bodi rápidamente se da cuenta de que ha mordido más de lo que puede masticar cuando se convierte en una personalidad sensacional de la televisión de la noche a la mañana.

Ficha técnica

Video trailer de la película

Enlaces de descarga

Rip de Bluray

Descargar Rock Dog 3: Rockeando juntos (2023) PLACEBO Full HD 1080p Latino




Aportes de DPeliculasHDmega la pass es:dpeliculashdmega.org Aportes de CinemaniaHD la pass es:cinemaniahdd.com Aportes recientes:cinemaniahdd.net

Películas relacionadas

  • Viviendo con mi ex (2006) REMUX 1080p Latino-CMHDD

    Viviendo con mi ex (2006) REMUX 1080p Latino-CMHDD

    2006
    Viviendo con mi ex (2006) REMUX 1080p Latino-CMHDD

    1h 46m 2006

    Descargar Viviendo con mi ex (2006) REMUX 1080p Latino-CMHDD. Relato sobre las consecuencias de una ruptura...

    Director: Todd Amateau

    Género: Comedia

    Actores: William Dick

  • The Lego Movie (2014) REMUX 4K HDR Latino – CMHDD

    The Lego Movie (2014) REMUX 4K HDR Latino – CMHDD

    2014
    The Lego Movie (2014) REMUX 4K HDR Latino – CMHDD

    1h 40m 2014

    Película basada en los clásicos juguetes LEGO. Emmet, el protagonista de la película, trabaja como...

    Director: Vernessa Cook

    Género: Animación

    Actores: Will Forte

  • The Lego Movie (2014) REMUX 1080p Latino – CMHDD

    The Lego Movie (2014) REMUX 1080p Latino – CMHDD

    2014
    The Lego Movie (2014) REMUX 1080p Latino – CMHDD

    1h 40m 2014

    Película basada en los clásicos juguetes LEGO. Emmet, el protagonista de la película, trabaja como...

    Director: Vernessa Cook

    Género: Animación

    Actores: Will Forte

descargar Rock Dog 3: Rockeando juntos (2023) PLACEBO Full HD 1080p Latino Full 1080p 1080p gratis, Rock Dog 3: Rockeando juntos (2023) PLACEBO Full HD 1080p Latino Full 1080p mega 1 link, Rock Dog 3: Rockeando juntos (2023) PLACEBO Full HD 1080p Latino Full 1080p pelicula completa, descargar Rock Dog 3: Rockeando juntos (2023) PLACEBO Full HD 1080p Latino Full 1080p gratis en mega.

Rock Dog 3: Rockeando juntos (2023) PLACEBO Full HD 1080p Latino pelicula full hd, Rock Dog 3: Rockeando juntos (2023) PLACEBO Full HD 1080p Latino mega latino, Rock Dog 3: Rockeando juntos (2023) PLACEBO Full HD 1080p Latino 4k latino, Rock Dog 3: Rockeando juntos (2023) PLACEBO Full HD 1080p Latino pelicula completa, Rock Dog 3: Rockeando juntos (2023) PLACEBO Full HD 1080p Latino descargar gratis, descargar Rock Dog 3: Rockeando juntos (2023) PLACEBO Full HD 1080p Latino pelicula latino, Rock Dog 3: Rockeando juntos (2023) PLACEBO Full HD 1080p Latino 1 link mega, Rock Dog 3: Rockeando juntos (2023) PLACEBO Full HD 1080p Latino 1 link google drive, Rock Dog 3: Rockeando juntos (2023) PLACEBO Full HD 1080p Latino hd 1080p latino.
Comentarios 0