×

¿Problemas para descargar con Mozilla, EDGE? Deshabilita la opción "Abrir vinculos en una pestaña nueva" tal como lo muestra ésta imagen.

Robocop 3 (1993) HD 1080p Latino – CMHDD

524 vistas

Información de Robocop 3 (1993) HD 1080p Latino – CMHDD

Datos de la película

  • Calidad: Full 1080p
  • Audio: Español Latino AC3 5.1 BLURAY - Ingles AC3 5.1 BLURAY
  • Subtitulos: Español Latino SRT- FORZADOS SRT
  • Resolución: 1920x1080p
  • Formato: MKV
  • Codec: H.264
  • Encoder: Dracarys
  • Mediainfo: Clic para Mostrar Datos Ver
  • Format                      : Matroska
    Format version              : Version 4
    File size                   : 3.29 GiB
    Duration                    : 1 h 44 min
    Overall bit rate            : 4 492 kb/s
    Movie name                  : Robocop 3 (1993) HD 1080p Latino - CMHDD
    Encoded date                : UTC 2020-05-18 20:09:25
    Writing application         : mkvmerge v46.0.0 ('No Deeper Escape') 64-bit
    Writing library             : libebml v1.3.10 + libmatroska v1.5.2

    Video
    ID                          : 1
    Format                      : AVC
    Format/Info                 : Advanced Video Codec
    Format profile              : High@L4.1
    Format settings             : CABAC / 4 Ref Frames
    Format settings, CABAC      : Yes
    Format settings, Reference  : 4 frames
    Codec ID                    : V_MPEG4/ISO/AVC
    Duration                    : 1 h 44 min
    Bit rate                    : 3 500 kb/s
    Width                       : 1 920 pixels
    Height                      : 1 040 pixels
    Display aspect ratio        : 1.85:1
    Frame rate mode             : Constant
    Frame rate                  : 23.976 (24000/1001) FPS
    Color space                 : YUV
    Chroma subsampling          : 4:2:0
    Bit depth                   : 8 bits
    Scan type                   : Progressive
    Bits/(Pixel*Frame)          : 0.073
    Stream size                 : 2.49 GiB (76%)
    Writing library             : x264 core 157 r2935 545de2f
    Encoding settings           : cabac=1 / ref=4 / deblock=1:0:0 / analyse=0x3:0x113 / me=hex / subme=8 / psy=1 / psy_rd=1.00:0.00 / mixed_ref=1 / me_range=16 / chroma_me=1 / trellis=2 / 8x8dct=1 / cqm=0 / deadzone=21,11 / fast_pskip=1 / chroma_qp_offset=-2 / threads=24 / lookahead_threads=4 / sliced_threads=0 / nr=0 / decimate=1 / interlaced=0 / bluray_compat=0 / constrained_intra=0 / bframes=3 / b_pyramid=2 / b_adapt=1 / b_bias=0 / direct=3 / weightb=1 / open_gop=0 / weightp=2 / keyint=240 / keyint_min=24 / scenecut=40 / intra_refresh=0 / rc_lookahead=50 / rc=abr / mbtree=1 / bitrate=3500 / ratetol=1.0 / qcomp=0.60 / qpmin=0 / qpmax=69 / qpstep=4 / vbv_maxrate=62500 / vbv_bufsize=78125 / nal_hrd=none / filler=0 / ip_ratio=1.40 / aq=1:1.00
    Default                     : Yes
    Forced                      : No
    Color range                 : Limited
    Color primaries             : BT.709
    Transfer characteristics    : BT.709
    Matrix coefficients         : BT.709

    Audio #1
    ID                          : 2
    Format                      : AC-3
    Format/Info                 : Audio Coding 3
    Commercial name             : Dolby Digital
    Codec ID                    : A_AC3
    Duration                    : 1 h 44 min
    Bit rate mode               : Constant
    Bit rate                    : 448 kb/s
    Channel(s)                  : 6 channels
    Channel layout              : L R C LFE Ls Rs
    Sampling rate               : 48.0 kHz
    Frame rate                  : 31.250 FPS (1536 SPF)
    Compression mode            : Lossy
    Delay relative to video     : -5 ms
    Stream size                 : 336 MiB (10%)
    Language                    : Spanish
    Service kind                : Complete Main
    Default                     : No
    Forced                      : No

    Audio #2
    ID                          : 3
    Format                      : AC-3
    Format/Info                 : Audio Coding 3
    Commercial name             : Dolby Digital
    Codec ID                    : A_AC3
    Duration                    : 1 h 44 min
    Bit rate mode               : Constant
    Bit rate                    : 640 kb/s
    Channel(s)                  : 6 channels
    Channel layout              : L R C LFE Ls Rs
    Sampling rate               : 48.0 kHz
    Frame rate                  : 31.250 FPS (1536 SPF)
    Compression mode            : Lossy
    Delay relative to video     : -5 ms
    Stream size                 : 480 MiB (14%)
    Language                    : English
    Service kind                : Complete Main
    Default                     : Yes
    Forced                      : No

    Text #1
    ID                          : 4
    Format                      : UTF-8
    Codec ID                    : S_TEXT/UTF8
    Codec ID/Info               : UTF-8 Plain Text
    Duration                    : 1 h 35 min
    Bit rate                    : 0 b/s
    Count of elements           : 18
    Stream size                 : 603 Bytes (0%)
    Title                       : SRT-Forzados
    Language                    : Spanish
    Default                     : Yes
    Forced                      : No

    Text #2
    ID                          : 5
    Format                      : UTF-8
    Codec ID                    : S_TEXT/UTF8
    Codec ID/Info               : UTF-8 Plain Text
    Duration                    : 1 h 44 min
    Bit rate                    : 31 b/s
    Count of elements           : 856
    Stream size                 : 24.2 KiB (0%)
    Title                       : SRT-Completos
    Language                    : Spanish
    Default                     : No
    Forced                      : No

    Text #3
    ID                          : 6
    Format                      : PGS
    Muxing mode                 : zlib
    Codec ID                    : S_HDMV/PGS
    Codec ID/Info               : Picture based subtitle format used on BDs/HD-DVDs
    Duration                    : 1 h 44 min
    Bit rate                    : 19.8 kb/s
    Count of elements           : 1712
    Stream size                 : 14.7 MiB (0%)
    Title                       : PGS-Completos
    Language                    : Spanish
    Default                     : No
    Forced                      : No

  • Peso: 3.29 GiB

Sinopsis

La ciudad de Detroit está dominada por bandas de mafiosos que no pueden ser controlados por la policía, pero sí por los poderosos dirigentes de la multinacional OCP, los cuales quieren destruir un barrio de inmigrantes y, en su lugar, construir un complejo residencial de lujo. Para lograrlo, sobornan a los políticos y controlan a casi toda la policía, pero no consiguen controlar a Robocop, que protegerá a los inocentes. Cuando todo parece perdido para los oprimidos, unos pocos policías tienen un arranque de honestidad y se unen a Robocop para restablecer el orden y la justicia.

Ficha técnica

Video trailer de la película

Enlaces de descarga

Rip de Bluray

Descargar Robocop 3 (1993) HD 1080p Latino – CMHDD




Aportes de DPeliculasHDmega la pass es:dpeliculashdmega.org Aportes de CinemaniaHD la pass es:cinemaniahdd.com

Películas relacionadas

  • Paradise Highway (2022) HD 1080p Latino

    Paradise Highway (2022) HD 1080p Latino

    2022
    Paradise Highway (2022) HD 1080p Latino

    1h 55m 2022

    Descargar Paradise Highway (2022) HD 1080p Latino. Un camionero se ha visto obligado a pasar de contrabando...

    Director: Anna Gutto

    Género: Crimen

    Actores: Xavier Scott Evans

  • Paradise Highway (2022) PLACEBO Full HD 1080p Latino

    Paradise Highway (2022) PLACEBO Full HD 1080p Latino

    2022
    Paradise Highway (2022) PLACEBO Full HD 1080p Latino

    1h 55m 2022

    Descargar Paradise Highway (2022) PLACEBO Full HD 1080p Latino. Un camionero se ha visto obligado a pasar...

    Director: Anna Gutto

    Género: Crimen

    Actores: Xavier Scott Evans

  • Paradise Highway (2022) REMUX 1080p Latino

    Paradise Highway (2022) REMUX 1080p Latino

    2022
    Paradise Highway (2022) REMUX 1080p Latino

    1h 55m 2022

    Descargar Paradise Highway (2022) REMUX 1080p Latino. Un camionero se ha visto obligado a pasar de contrabando...

    Director: Anna Gutto

    Género: Crimen

    Actores: Xavier Scott Evans

descargar Robocop 3 (1993) HD 1080p Latino – CMHDD Full 1080p 1080p gratis, Robocop 3 (1993) HD 1080p Latino – CMHDD Full 1080p mega 1 link, Robocop 3 (1993) HD 1080p Latino – CMHDD Full 1080p pelicula completa, descargar Robocop 3 (1993) HD 1080p Latino – CMHDD Full 1080p gratis en mega.

Robocop 3 (1993) HD 1080p Latino – CMHDD pelicula full hd, Robocop 3 (1993) HD 1080p Latino – CMHDD mega latino, Robocop 3 (1993) HD 1080p Latino – CMHDD 4k latino, Robocop 3 (1993) HD 1080p Latino – CMHDD pelicula completa, Robocop 3 (1993) HD 1080p Latino – CMHDD descargar gratis, descargar Robocop 3 (1993) HD 1080p Latino – CMHDD pelicula latino, Robocop 3 (1993) HD 1080p Latino – CMHDD 1 link mega, Robocop 3 (1993) HD 1080p Latino – CMHDD 1 link google drive, Robocop 3 (1993) HD 1080p Latino – CMHDD hd 1080p latino.
Comentarios 0