×

¿Problemas para descargar con Mozilla, EDGE? Deshabilita la opción "Abrir vinculos en una pestaña nueva" tal como lo muestra ésta imagen.

Robocop 2 (1990) HD 1080p Latino – CMHDD

486 vistas

Información de Robocop 2 (1990) HD 1080p Latino – CMHDD

Datos de la película

  • Calidad: 1080p
  • Audio: Español Latino AC3 5.1 BLURAY - Ingles AC3 5.1 BLURAY
  • Subtitulos: Español Latino SRT- FORZADOS SRT
  • Resolución: 1920x1040p
  • Formato: MKV
  • Codec: H.264
  • Encoder: Dracarys
  • Mediainfo: Clic para Mostrar Datos Ver
  • Format                      : Matroska
    Format version              : Version 4
    File size                   : 3.66 GiB
    Duration                    : 1 h 56 min
    Overall bit rate            : 4 490 kb/s
    Movie name                  : Robocop 2 (1990) HD 1080p Latino - CMHDD
    Encoded date                : UTC 2020-05-18 18:58:34
    Writing application         : mkvmerge v46.0.0 ('No Deeper Escape') 64-bit
    Writing library             : libebml v1.3.10 + libmatroska v1.5.2

    Video
    ID                          : 1
    Format                      : AVC
    Format/Info                 : Advanced Video Codec
    Format profile              : High@L4.1
    Format settings             : CABAC / 4 Ref Frames
    Format settings, CABAC      : Yes
    Format settings, Reference  : 4 frames
    Codec ID                    : V_MPEG4/ISO/AVC
    Duration                    : 1 h 56 min
    Bit rate                    : 3 500 kb/s
    Width                       : 1 920 pixels
    Height                      : 1 040 pixels
    Display aspect ratio        : 1.85:1
    Frame rate mode             : Constant
    Frame rate                  : 23.976 (24000/1001) FPS
    Color space                 : YUV
    Chroma subsampling          : 4:2:0
    Bit depth                   : 8 bits
    Scan type                   : Progressive
    Bits/(Pixel*Frame)          : 0.073
    Stream size                 : 2.77 GiB (76%)
    Writing library             : x264 core 157 r2935 545de2f
    Encoding settings           : cabac=1 / ref=4 / deblock=1:0:0 / analyse=0x3:0x113 / me=hex / subme=8 / psy=1 / psy_rd=1.00:0.00 / mixed_ref=1 / me_range=16 / chroma_me=1 / trellis=2 / 8x8dct=1 / cqm=0 / deadzone=21,11 / fast_pskip=1 / chroma_qp_offset=-2 / threads=24 / lookahead_threads=4 / sliced_threads=0 / nr=0 / decimate=1 / interlaced=0 / bluray_compat=0 / constrained_intra=0 / bframes=3 / b_pyramid=2 / b_adapt=1 / b_bias=0 / direct=3 / weightb=1 / open_gop=0 / weightp=2 / keyint=240 / keyint_min=24 / scenecut=40 / intra_refresh=0 / rc_lookahead=50 / rc=abr / mbtree=1 / bitrate=3500 / ratetol=1.0 / qcomp=0.60 / qpmin=0 / qpmax=69 / qpstep=4 / vbv_maxrate=62500 / vbv_bufsize=78125 / nal_hrd=none / filler=0 / ip_ratio=1.40 / aq=1:1.00
    Default                     : Yes
    Forced                      : No
    Color range                 : Limited
    Color primaries             : BT.709
    Transfer characteristics    : BT.709
    Matrix coefficients         : BT.709

    Audio #1
    ID                          : 2
    Format                      : AC-3
    Format/Info                 : Audio Coding 3
    Commercial name             : Dolby Digital
    Codec ID                    : A_AC3
    Duration                    : 1 h 56 min
    Bit rate mode               : Constant
    Bit rate                    : 448 kb/s
    Channel(s)                  : 6 channels
    Channel layout              : L R C LFE Ls Rs
    Sampling rate               : 48.0 kHz
    Frame rate                  : 31.250 FPS (1536 SPF)
    Compression mode            : Lossy
    Delay relative to video     : -5 ms
    Stream size                 : 374 MiB (10%)
    Language                    : Spanish
    Service kind                : Complete Main
    Default                     : Yes
    Forced                      : No

    Audio #2
    ID                          : 3
    Format                      : AC-3
    Format/Info                 : Audio Coding 3
    Commercial name             : Dolby Digital
    Codec ID                    : A_AC3
    Duration                    : 1 h 56 min
    Bit rate mode               : Constant
    Bit rate                    : 640 kb/s
    Channel(s)                  : 6 channels
    Channel layout              : L R C LFE Ls Rs
    Sampling rate               : 48.0 kHz
    Frame rate                  : 31.250 FPS (1536 SPF)
    Compression mode            : Lossy
    Delay relative to video     : -5 ms
    Stream size                 : 534 MiB (14%)
    Language                    : English
    Service kind                : Complete Main
    Default                     : No
    Forced                      : No

    Text #1
    ID                          : 4
    Format                      : UTF-8
    Codec ID                    : S_TEXT/UTF8
    Codec ID/Info               : UTF-8 Plain Text
    Duration                    : 1 h 54 min
    Bit rate                    : 0 b/s
    Count of elements           : 15
    Stream size                 : 313 Bytes (0%)
    Title                       : SRT-Forzados
    Language                    : Spanish
    Default                     : Yes
    Forced                      : No

    Text #2
    ID                          : 5
    Format                      : UTF-8
    Codec ID                    : S_TEXT/UTF8
    Codec ID/Info               : UTF-8 Plain Text
    Duration                    : 1 h 55 min
    Bit rate                    : 32 b/s
    Count of elements           : 1021
    Stream size                 : 27.4 KiB (0%)
    Title                       : SRT-Completos
    Language                    : Spanish
    Default                     : No
    Forced                      : No

  • Peso: 3.66 GiB

Sinopsis

Bajo un cielo carente de ozono y en una época futurista, la policía de Detroit está en huelga, y las peligrosas bandas criminales dominan a la población. La adicción al Nuke, una poderosa y nueva droga es el pan de cada día. La megacorporación OCP -Omni Consumer Products-, en un intento de reforzar su implacable imperio, pretende apoderarse de la ciudad, para su propia explotación privada. El director de la OCP solicita a la doctora Faxx que reprograme a RoboCop, dejándolo incapaz de luchar contra la delincuencia.

Ficha técnica

Video trailer de la película

Enlaces de descarga

Rip de Bluray

Descargar Robocop 2 (1990) HD 1080p Latino – CMHDD




Aportes de DPeliculasHDmega la pass es:dpeliculashdmega.org Aportes de CinemaniaHD la pass es:cinemaniahdd.com

Películas relacionadas

descargar Robocop 2 (1990) HD 1080p Latino – CMHDD 1080p 1080p gratis, Robocop 2 (1990) HD 1080p Latino – CMHDD 1080p mega 1 link, Robocop 2 (1990) HD 1080p Latino – CMHDD 1080p pelicula completa, descargar Robocop 2 (1990) HD 1080p Latino – CMHDD 1080p gratis en mega.

Robocop 2 (1990) HD 1080p Latino – CMHDD pelicula full hd, Robocop 2 (1990) HD 1080p Latino – CMHDD mega latino, Robocop 2 (1990) HD 1080p Latino – CMHDD 4k latino, Robocop 2 (1990) HD 1080p Latino – CMHDD pelicula completa, Robocop 2 (1990) HD 1080p Latino – CMHDD descargar gratis, descargar Robocop 2 (1990) HD 1080p Latino – CMHDD pelicula latino, Robocop 2 (1990) HD 1080p Latino – CMHDD 1 link mega, Robocop 2 (1990) HD 1080p Latino – CMHDD 1 link google drive, Robocop 2 (1990) HD 1080p Latino – CMHDD hd 1080p latino.
Comentarios 2
  • CESAR KUKY - 23 mayo, 2020

    HOLA AMIGOS EN EL ENLACE DE MEGA DE ESTA OPCION PESA 17GB Y EN EL DETALLE DICE 3.66GB LES AVISO PARA QUE REVISEN Y SE PUEDA DESCARGAR LA OPCION MAS LIVIANA. GRACIAS. ABRAZOS

    • Dracarys - 23 mayo, 2020

      Arreglado…