Robocop (1987) [Director’s Cut Remastered] REMUX 1080p Latino – CMHDD

21 vistas
1 estrella2 estrellas3 estrellas4 estrellas5 estrellas (1 votos, promedio: 5,00 de 5)
Cargando…

Información de Robocop (1987) [Director’s Cut Remastered] REMUX 1080p Latino – CMHDD

Datos de la película

  • Calidad: Full 1080p
  • Audio: Español Latino AC3 5.1 BLURAY - Ingles DTS 5.1 BLURAY
  • Subtitulos: Español Latino SRT
  • Resolución: 1920x1080p
  • Formato: MKV
  • Codec: H.264
  • Encoder: Dracarys
  • Mediainfo: Clic para Mostrar Datos Ver
  • Format                      : Matroska
    Format version              : Version 4
    File size                   :
    Duration                    : 1 h 43 min
    Overall bit rate mode       : Variable
    Overall bit rate            : 24.6 Mb/s
    Movie name                  : Robocop (1987) [Director’s Cut Remastered] REMUX 1080p Latino - CMHDD
    Encoded date                : UTC 2020-05-18 16:56:45
    Writing application         : mkvmerge v46.0.0 ('No Deeper Escape') 64-bit
    Writing library             : libebml v1.3.10 + libmatroska v1.5.2

    Video
    ID                          : 1
    Format                      : MPEG Video
    Format version              : Version 2
    Format profile              : Main@High
    Format settings             : CustomMatrix / BVOP
    Format settings, BVOP       : Yes
    Format settings, Matrix     : Custom
    Format settings, GOP        : M=3, N=12
    Codec ID                    : V_MPEG2
    Codec ID/Info               : MPEG 1 or 2 Video
    Duration                    : 1 h 43 min
    Bit rate mode               : Variable
    Bit rate                    : 20.7 Mb/s
    Maximum bit rate            : 39.0 Mb/s
    Width                       : 1 920 pixels
    Height                      : 1 080 pixels
    Display aspect ratio        : 16:9
    Frame rate mode             : Constant
    Frame rate                  : 23.976 (24000/1001) FPS
    Color space                 : YUV
    Chroma subsampling          : 4:2:0
    Bit depth                   : 8 bits
    Scan type                   : Progressive
    Compression mode            : Lossy
    Bits/(Pixel*Frame)          : 0.417
    Time code of first frame    : 00:00:00:00
    Time code source            : Group of pictures header
    GOP, Open/Closed            : Open
    GOP, Open/Closed of first f : Closed
    Stream size                 : 15.0 GiB (84%)
    Language                    : English
    Default                     : Yes
    Forced                      : No

    Audio #1
    ID                          : 2
    Format                      : AC-3
    Format/Info                 : Audio Coding 3
    Commercial name             : Dolby Digital
    Codec ID                    : A_AC3
    Duration                    : 1 h 43 min
    Bit rate mode               : Constant
    Bit rate                    : 448 kb/s
    Channel(s)                  : 6 channels
    Channel layout              : L R C LFE Ls Rs
    Sampling rate               : 48.0 kHz
    Frame rate                  : 31.250 FPS (1536 SPF)
    Compression mode            : Lossy
    Stream size                 : 331 MiB (2%)
    Language                    : Spanish
    Service kind                : Complete Main
    Default                     : Yes
    Forced                      : No

    Audio #2
    ID                          : 3
    Format                      : DTS XLL
    Format/Info                 : Digital Theater Systems
    Commercial name             : DTS-HD Master Audio
    Codec ID                    : A_DTS
    Duration                    : 1 h 43 min
    Bit rate mode               : Variable
    Bit rate                    : 3 382 kb/s
    Channel(s)                  : 6 channels
    Channel layout              : C L R Ls Rs LFE
    Sampling rate               : 48.0 kHz
    Frame rate                  : 93.750 FPS (512 SPF)
    Bit depth                   : 24 bits
    Compression mode            : Lossless
    Stream size                 : 2.44 GiB (14%)
    Language                    : English
    Default                     : No
    Forced                      : No

    Text #1
    ID                          : 4
    Format                      : UTF-8
    Codec ID                    : S_TEXT/UTF8
    Codec ID/Info               : UTF-8 Plain Text
    Duration                    : 1 h 36 min
    Bit rate                    : 51 b/s
    Count of elements           : 1170
    Stream size                 : 36.4 KiB (0%)
    Language                    : Spanish
    Default                     : No
    Forced                      : No

    Text #2
    ID                          : 5
    Format                      : PGS
    Muxing mode                 : zlib
    Codec ID                    : S_HDMV/PGS
    Codec ID/Info               : Picture based subtitle format used on BDs/HD-DVDs
    Duration                    : 1 h 36 min
    Bit rate                    : 32.4 kb/s
    Count of elements           : 2353
    Stream size                 : 22.3 MiB (0%)
    Language                    : Spanish
    Default                     : No
    Forced                      : No
     

  • Peso: 17.7 GiB

Sinopsis

Parte del cuerpo de un policía asesinado, es utilizado para crear un «superpolicía» con cuerpo mecánico y cerebro humano. Aunque los científicos aseguran que el robot no tendrá remordimientos, éstos acabarán apareciendo en la memoria del humanoide.

Ficha técnica

Video trailer de la película

Enlaces de descarga

Rip de Bluray

Descargar Robocop (1987) [Director’s Cut Remastered] REMUX 1080p Latino – CMHDD




Aportes de DPeliculasHDmega la pass es:dpeliculashdmega.org Aportes de CinemaniaHD la pass es:cinemaniahdd.com

Películas relacionadas

  • El Niño (2016) 1080p Latino

    El Niño (2016) 1080p Latino

    2016
    El Niño (2016) 1080p Latino

    0.0 1h 37m 2016

    Descargar El Niño (2016) 1080p Latino. Greta (Lauren Cohan) es una joven americana que acepta trabajar...

    Director: William Brent Bell

    Género: HD 1080p

    Actores: Stephanie Lemelin

  • El Niño (2016) Full HD 1080p Latino

    El Niño (2016) Full HD 1080p Latino

    2016
    El Niño (2016) Full HD 1080p Latino

    0.0 1h 37m 2016

    Descargar El Niño (2016) Full HD 1080p Latino. Greta (Lauren Cohan) es una joven americana que acepta...

    Director: William Brent Bell

    Género: FULL 1080p Plateadas

    Actores: Stephanie Lemelin

  • El Niño (2016) REMUX 1080p Latino

    El Niño (2016) REMUX 1080p Latino

    2016
    El Niño (2016) REMUX 1080p Latino

    0.0 1h 37m 2016

    Descargar El Niño (2016) REMUX 1080p Latino. Greta (Lauren Cohan) es una joven americana que acepta...

    Director: William Brent Bell

    Género: Misterio

    Actores: Stephanie Lemelin

Comentarios 0