×

¿Problemas para descargar con Mozilla, EDGE? Deshabilita la opción "Abrir vinculos en una pestaña nueva" tal como lo muestra ésta imagen.

Robin Williams: Entra En Mi Mente (2018) AMZN WEB-DL 1080p Latino

973 vistas

Información de Robin Williams: Entra En Mi Mente (2018) AMZN WEB-DL 1080p Latino

Datos de la película

  • Calidad: WEBDL
  • Audio: Español Latino AC3 2.0 - Ingles AC3 5.1 HBO
  • Subtitulos: Español Latino SRT- FORZADOS SRT
  • Resolución: 1920x1080
  • Formato: MKV
  • Codec: H.264
  • Encoder: cinemaniahdd
  • Mediainfo: Clic para Mostrar Datos Ver
  • Robin Williams, Entra En Mi Mente (2018) AMZN WEB-DL 1080p Latino.mkv
    Format                      : Matroska
    Format version              : Version 4
    File size                   : 5.75 GiB
    Duration                    : 1 h 56 min
    Overall bit rate            : 7 067 kb/s
    Movie name                  : Robin Williams, Entra En Mi Mente (2018) - CinemaniaHDD.Net
    Encoded date                : UTC 2020-02-23 20:52:36
    Writing application         : mkvmerge v42.0.0 ('Overtime') 64-bit
    Writing library             : libebml v1.3.10 + libmatroska v1.5.2

    Video
    ID                          : 1
    Format                      : AVC
    Format/Info                 : Advanced Video Codec
    Format profile              : High@L4
    Format settings             : CABAC / 4 Ref Frames
    Format settings, CABAC      : Yes
    Format settings, ReFrames   : 4 frames
    Codec ID                    : V_MPEG4/ISO/AVC
    Duration                    : 1 h 56 min
    Bit rate                    : 6 169 kb/s
    Width                       : 1 920 pixels
    Height                      : 1 080 pixels
    Display aspect ratio        : 16:9
    Frame rate mode             : Constant
    Frame rate                  : 23.976 (24000/1001) FPS
    Color space                 : YUV
    Chroma subsampling          : 4:2:0
    Bit depth                   : 8 bits
    Scan type                   : Progressive
    Bits/(Pixel*Frame)          : 0.124
    Stream size                 : 5.02 GiB (87%)
    Title                       : CinemaniaHDD
    Default                     : Yes
    Forced                      : No
    Color range                 : Limited
    Color primaries             : BT.709
    Transfer characteristics    : BT.709
    Matrix coefficients         : BT.709

    Audio #1
    ID                          : 2
    Format                      : AC-3
    Format/Info                 : Audio Coding 3
    Commercial name             : Dolby Digital
    Codec ID                    : A_AC3
    Duration                    : 1 h 56 min
    Bit rate mode               : Constant
    Bit rate                    : 256 kb/s
    Channel(s)                  : 2 channels
    Channel layout              : L R
    Sampling rate               : 48.0 kHz
    Frame rate                  : 31.250 FPS (1536 SPF)
    Bit depth                   : 16 bits
    Compression mode            : Lossy
    Stream size                 : 213 MiB (4%)
    Title                       : Español latino [CinemaniaHDD]
    Language                    : Spanish
    Service kind                : Complete Main
    Default                     : Yes
    Forced                      : No

    Audio #2
    ID                          : 3
    Format                      : E-AC-3
    Format/Info                 : Enhanced AC-3
    Commercial name             : Dolby Digital Plus
    Codec ID                    : A_EAC3
    Duration                    : 1 h 56 min
    Bit rate mode               : Constant
    Bit rate                    : 640 kb/s
    Channel(s)                  : 6 channels
    Channel layout              : L R C LFE Ls Rs
    Sampling rate               : 48.0 kHz
    Frame rate                  : 31.250 FPS (1536 SPF)
    Compression mode            : Lossy
    Delay relative to video     : 1 ms
    Stream size                 : 534 MiB (9%)
    Title                       : Inglés [CinemaniaHDD]
    Language                    : English
    Service kind                : Complete Main
    Default                     : No
    Forced                      : No

    Text #1
    ID                          : 4
    Format                      : UTF-8
    Codec ID                    : S_TEXT/UTF8
    Codec ID/Info               : UTF-8 Plain Text
    Duration                    : 12 min 35 s
    Bit rate                    : 1 b/s
    Count of elements           : 5
    Stream size                 : 174 Bytes (0%)
    Title                       : Forzados [CinemaniaHDD]
    Language                    : Spanish
    Default                     : Yes
    Forced                      : Yes

    Text #2
    ID                          : 5
    Format                      : UTF-8
    Codec ID                    : S_TEXT/UTF8
    Codec ID/Info               : UTF-8 Plain Text
    Duration                    : 1 h 53 min
    Bit rate                    : 69 b/s
    Count of elements           : 1556
    Stream size                 : 57.6 KiB (0%)
    Title                       : Español latino [CinemaniaHDD]
    Language                    : Spanish
    Default                     : No
    Forced                      : No

    Text #3
    ID                          : 6
    Format                      : UTF-8
    Codec ID                    : S_TEXT/UTF8
    Codec ID/Info               : UTF-8 Plain Text
    Duration                    : 1 h 56 min
    Bit rate                    : 98 b/s
    Count of elements           : 2380
    Stream size                 : 84.0 KiB (0%)
    Title                       : Inglés [CinemaniaHDD]
    Language                    : English
    Default                     : No
    Forced                      : No

     

  • Peso: 5.75 GiB

Sinopsis

Un divertido, íntimo y conmovedor retrato de uno de los comediantes más queridos e inventivos del mundo, Robin Williams. El filme explora su extraordinaria vida y carrera, revelando lo que lo llevó a dar voz a los personajes en su mente hasta su trágica muerte en 2014.

Ficha técnica

Video trailer de la película

Enlaces de descarga

Rip de Bluray

Descargar Robin Williams: Entra En Mi Mente (2018) AMZN WEB-DL 1080p Latino




Aportes de DPeliculasHDmega la pass es:dpeliculashdmega.org Aportes de CinemaniaHD la pass es:cinemaniahdd.com
Guardado en : Comedia , Documental , HBO

Películas relacionadas

descargar Robin Williams: Entra En Mi Mente (2018) AMZN WEB-DL 1080p Latino WEBDL 1080p gratis, Robin Williams: Entra En Mi Mente (2018) AMZN WEB-DL 1080p Latino WEBDL mega 1 link, Robin Williams: Entra En Mi Mente (2018) AMZN WEB-DL 1080p Latino WEBDL pelicula completa, descargar Robin Williams: Entra En Mi Mente (2018) AMZN WEB-DL 1080p Latino WEBDL gratis en mega.

Robin Williams: Entra En Mi Mente (2018) AMZN WEB-DL 1080p Latino pelicula full hd, Robin Williams: Entra En Mi Mente (2018) AMZN WEB-DL 1080p Latino mega latino, Robin Williams: Entra En Mi Mente (2018) AMZN WEB-DL 1080p Latino 4k latino, Robin Williams: Entra En Mi Mente (2018) AMZN WEB-DL 1080p Latino pelicula completa, Robin Williams: Entra En Mi Mente (2018) AMZN WEB-DL 1080p Latino descargar gratis, descargar Robin Williams: Entra En Mi Mente (2018) AMZN WEB-DL 1080p Latino pelicula latino, Robin Williams: Entra En Mi Mente (2018) AMZN WEB-DL 1080p Latino 1 link mega, Robin Williams: Entra En Mi Mente (2018) AMZN WEB-DL 1080p Latino 1 link google drive, Robin Williams: Entra En Mi Mente (2018) AMZN WEB-DL 1080p Latino hd 1080p latino.
Comentarios 0