Robin Hood (2010) UNRATED 1080p Latino

721 vistas
1 estrella2 estrellas3 estrellas4 estrellas5 estrellas (4 votos, promedio: 4,00 de 5)
Cargando…

Información de Robin Hood (2010) UNRATED 1080p Latino

Datos de la película

  • Calidad: Full 1080p
  • Audio: Español Latino DTS 5.1 BLURAY - Ingles DTS 5.1 BLURAY
  • Subtitulos: Español Latino PGS - Ingles PGS
  • Resolución: 1920xp
  • Formato: MKV
  • Codec: H.264
  • Encoder: Dracarys
  • Mediainfo: Clic para Mostrar Datos Ver
  • Format                                   : Matroska
    Format version                           : Version 4 / Version 2
    File size                                : 6.26 GiB
    Duration                                 : 2 h 35 min
    Overall bit rate                         : 5 754 kb/s
    Movie name                               : CinemaniaHDD.net
    Encoded date                             : UTC 2018-08-02 04:19:42 / UTC 2018-07-27T07:22:17Z
    Writing application                      : mkvmerge v15.0.0 ('Duel with the Devil') 64-bit
    Writing library                          : libebml v1.3.5 + libmatroska v1.4.5 / Lavf57.7.2

    Video
    ID                                       : 1
    Format                                   : AVC
    Format/Info                              : Advanced Video Codec
    Format profile                           : High@L4.1
    Format settings                          : CABAC / 5 Ref Frames
    Format settings, CABAC                   : Yes
    Format settings, RefFrames               : 5 frames
    Codec ID                                 : V_MPEG4/ISO/AVC
    Duration                                 : 2 h 35 min
    Bit rate                                 : 3 500 kb/s
    Width                                    : 1 920 pixels
    Height                                   : 800 pixels
    Display aspect ratio                     : 2.40:1
    Frame rate mode                          : Constant
    Frame rate                               : 23.976 (24000/1001) FPS
    Color space                              : YUV
    Chroma subsampling                       : 4:2:0
    Bit depth                                : 8 bits
    Scan type                                : Progressive
    Bits/(Pixel*Frame)                       : 0.095
    Stream size                              : 3.66 GiB (58%)
    Title                                    : Robin Hood (2010) UNRATED Full 1080p Latino
    Writing library                          : x264 core 148 r2708 86b7198
    Encoding settings                        : cabac=1 / ref=5 / deblock=1:0:0 / analyse=0x3:0x113 / me=umh / subme=8 / psy=1 / psy_rd=1.00:0.00 / mixed_ref=1 / me_range=16 / chroma_me=1 / trellis=1 / 8x8dct=1 / cqm=0 / deadzone=21,11 / fast_pskip=1 / chroma_qp_offset=-2 / threads=25 / lookahead_threads=4 / sliced_threads=0 / nr=0 / decimate=1 / interlaced=0 / bluray_compat=0 / constrained_intra=0 / bframes=3 / b_pyramid=2 / b_adapt=2 / b_bias=0 / direct=3 / weightb=1 / open_gop=0 / weightp=2 / keyint=240 / keyint_min=24 / scenecut=40 / intra_refresh=0 / rc_lookahead=50 / rc=abr / mbtree=1 / bitrate=3500 / ratetol=1.0 / qcomp=0.60 / qpmin=0 / qpmax=69 / qpstep=4 / vbv_maxrate=62500 / vbv_bufsize=78125 / nal_hrd=none / filler=0 / ip_ratio=1.40 / aq=1:1.00
    Language                                 : English
    Default                                  : Yes
    Forced                                   : No
    Color range                              : Limited
    Color primaries                          : BT.709
    Transfer characteristics                 : BT.709
    Matrix coefficients                      : BT.709
    Statistics Tags Issue                    : mkvmerge v15.0.0 ('Duel with the Devil') 64-bit 2018-08-02 04:19:42 / mkvmerge v15.0.0 ('Duel with the Devil') 64-bit 2018-08-02 04:19:42 / UTC 2018-07-27T07:22:17Z
    FromStats_BitRate                        : 3457451
    FromStats_Duration                       : 02:35:48.673000000
    FromStats_FrameCount                     : 224144
    FromStats_StreamSize                     : 4040322354

    Audio #1
    ID                                       : 2
    Format                                   : DTS
    Format/Info                              : Digital Theater Systems
    Mode                                     : 16
    Format settings, Endianness              : Big
    Codec ID                                 : A_DTS
    Duration                                 : 2 h 35 min
    Bit rate mode                            : Constant
    Bit rate                                 : 768 kb/s
    Channel(s)                               : 6 channels
    Channel positions                        : Front: L C R, Side: L R, LFE
    Sampling rate                            : 48.0 kHz
    Frame rate                               : 93.750 FPS (512 SPF)
    Bit depth                                : 24 bits
    Compression mode                         : Lossy
    Stream size                              : 856 MiB (13%)
    Language                                 : Spanish
    Default                                  : Yes
    Forced                                   : No
    Statistics Tags Issue                    : mkvmerge v15.0.0 ('Duel with the Devil') 64-bit 2018-08-02 04:19:42 / mkvmerge v15.0.0 ('Duel with the Devil') 64-bit 2018-08-02 04:19:42 / UTC 2018-07-27T07:22:17Z
    FromStats_BitRate                        : 767999
    FromStats_Duration                       : 02:35:48.726000000
    FromStats_FrameCount                     : 876443
    FromStats_StreamSize                     : 897477632

    Audio #2
    ID                                       : 3
    Format                                   : DTS
    Format/Info                              : Digital Theater Systems
    Mode                                     : 16
    Format settings, Endianness              : Big
    Codec ID                                 : A_DTS
    Duration                                 : 2 h 35 min
    Bit rate mode                            : Constant
    Bit rate                                 : 1 509 kb/s
    Channel(s)                               : 6 channels
    Channel positions                        : Front: L C R, Side: L R, LFE
    Sampling rate                            : 48.0 kHz
    Frame rate                               : 93.750 FPS (512 SPF)
    Bit depth                                : 24 bits
    Compression mode                         : Lossy
    Stream size                              : 1.64 GiB (26%)
    Language                                 : English
    Default                                  : No
    Forced                                   : No
    Statistics Tags Issue                    : mkvmerge v15.0.0 ('Duel with the Devil') 64-bit 2018-08-02 04:19:42 / mkvmerge v15.0.0 ('Duel with the Devil') 64-bit 2018-08-02 04:19:42 / UTC 2018-07-27T07:22:17Z
    FromStats_BitRate                        : 1508999
    FromStats_Duration                       : 02:35:48.715000000
    FromStats_FrameCount                     : 876442
    FromStats_StreamSize                     : 1763401304

    Text #1
    ID                                       : 4
    Format                                   : PGS
    Muxing mode                              : zlib
    Codec ID                                 : S_HDMV/PGS
    Codec ID/Info                            : Picture based subtitle format used on BDs/HD-DVDs
    Language                                 : English
    Default                                  : No
    Forced                                   : No
    Statistics Tags Issue                    : mkvmerge v15.0.0 ('Duel with the Devil') 64-bit 2018-08-02 04:19:42 / mkvmerge v15.0.0 ('Duel with the Devil') 64-bit 2018-08-02 04:19:42 / UTC 2018-07-27T07:22:17Z
    FromStats_BitRate                        : 28365
    FromStats_Duration                       : 02:28:16.345000000
    FromStats_FrameCount                     : 3121
    FromStats_StreamSize                     : 31543953

    Text #2
    ID                                       : 5
    Format                                   : PGS
    Muxing mode                              : zlib
    Codec ID                                 : S_HDMV/PGS
    Codec ID/Info                            : Picture based subtitle format used on BDs/HD-DVDs
    Language                                 : Spanish
    Default                                  : No
    Forced                                   : No
    Statistics Tags Issue                    : mkvmerge v15.0.0 ('Duel with the Devil') 64-bit 2018-08-02 04:19:42 / mkvmerge v15.0.0 ('Duel with the Devil') 64-bit 2018-08-02 04:19:42 / UTC 2018-07-27T07:22:17Z
    FromStats_BitRate                        : 25990
    FromStats_Duration                       : 02:28:50.255000000
    FromStats_FrameCount                     : 2930
    FromStats_StreamSize                     : 29013197

    Text #3
    ID                                       : 6
    Format                                   : PGS
    Muxing mode                              : zlib
    Codec ID                                 : S_HDMV/PGS
    Codec ID/Info                            : Picture based subtitle format used on BDs/HD-DVDs
    Title                                    : Forzados
    Language                                 : Spanish
    Default                                  : Yes
    Forced                                   : Yes
    Statistics Tags Issue                    : mkvmerge v15.0.0 ('Duel with the Devil') 64-bit 2018-08-02 04:19:42 / mkvmerge v15.0.0 ('Duel with the Devil') 64-bit 2018-08-02 04:19:42 / UTC 2018-07-27T07:22:17Z
    FromStats_BitRate                        : 1738
    FromStats_Duration                       : 02:26:04.097000000
    FromStats_FrameCount                     : 172
    FromStats_StreamSize                     : 1904351

    Menu
    00:00:00.000                             : :Chapter 1
    00:12:05.975                             : :Chapter 2
    00:18:27.440                             : :Chapter 3
    00:25:11.552                             : :Chapter 4
    00:33:31.426                             : :Chapter 5
    00:38:36.981                             : :Chapter 6
    00:48:42.586                             : :Chapter 7
    00:57:11.845                             : :Chapter 8
    01:04:14.309                             : :Chapter 9
    01:10:41.612                             : :Chapter 10
    01:23:24.625                             : :Chapter 11
    01:32:17.115                             : :Chapter 12
    01:40:30.149                             : :Chapter 13
    01:49:15.883                             : :Chapter 14
    01:56:06.418                             : :Chapter 15
    02:02:29.092                             : :Chapter 16
    02:09:20.670                             : :Chapter 17
    02:18:21.418                             : :Chapter 18
    02:22:48.685                             : :Chapter 19
    02:27:08.611                             : :Chapter 20

  • Peso: 6.26 GiB

Sinopsis

Inglaterra, siglo XIII. Robin Longstride (Russell Crowe), un magnífico arquero al servicio del rey Ricardo Corazón de León (Danny Huston), vuelve de las cruzadas en tierra santa saqueando poblados mientras lucha contra las tropas francesas. Cuando Ricardo muere bajo una fecha francesa, Robin se traslada a Nottingham con el objetivo de cumplir una promesa que hizo a Sir Robert Loxley (Douglas Hodge) antes de morir: devolver una espada a su padre, Sir Walter Loxley (Max Von Sydow). Allí conoce a lady Marion (Cate Blanchett), su viuda, una mujer con carácter. Mientras tanto, en un país debilitado por una larga guerra, regido por Juan (Oscar Isaac), un rey débil y poco eficaz, contra las rebeliones internas y las amenazas externas maquinadas por el pérfido Godfrey (Mark Strong), Robin y sus hombres se dejan llevar hacia una aventura mayor: deciden ayudar a impedir que el país caiga irremediablemente en una sangrienta guerra civil, y devolver la gloria a Inglaterra.

Ficha técnica

Video trailer de la película

Enlaces de descarga

Rip de Bluray

Descargar Robin Hood (2010) UNRATED 1080p Latino




Aportes de DPeliculasHDmega la pass es:dpeliculashdmega.org Aportes de CinemaniaHD la pass es:cinemaniahdd.com
Guardado en : Acción , Aventura , Drama

Películas relacionadas

  • La balada de Buster Scruggs (2018) NF 1080p Latino

    2018
    La balada de Buster Scruggs (2018) NF 1080p Latino

    0.0 2h 12m 2018

    Los siempre singulares Joel y Ethan Cohen escriben y dirigen esta antología de seis historias del Salvaje...

    Director: Joel Coen

    Género: Comedia

    Actores: Zoe Kazan

  • La pequeña brujita (2018) AMZN 1080p Latino

    2018
    La pequeña brujita (2018) AMZN 1080p Latino

    5.0 1h 43m 2018

    Descargar La pequeña brujita (2018) AMZN 1080p Latino, Mega, Google Drive. La pequeña bruja sólo tiene...

    Director: Mike Schaerer

    Género: Comedia

    Actores: Verena Bosshard

  • Puzzle (2018) Web-DL 1080p Latino

    2018
    Puzzle (2018) Web-DL 1080p Latino

    0.0 1h 43m 2018

    Descargar Puzzle (2018) Web-DL 1080p Latino; Mega, Google Drive. Una mujer acude a Atlantic City para...

    Director: Marc Turtletaub

    Género: Drama

    Actores: Myrna Cabello

Comentarios 0