Roald y Beatrix: La Cola del raton Curioso (2020) PLACEBO 1080p Latino

66 vistas
1 estrella2 estrellas3 estrellas4 estrellas5 estrellas (Ninguna valoración todavía)
Cargando...

Información de Roald y Beatrix: La Cola del raton Curioso (2020) PLACEBO 1080p Latino

Datos de la película

  • Calidad: Full 1080p
  • Audio: Español Latino AC3 5.1 WEB-DL - Ingles DTS 5.1 BLURAY
  • Subtitulos: Español Latino SRT- FORZADOS SRT
  • Resolución: 1920x1080p
  • Formato: MKV
  • Codec: H.264
  • Encoder: Melkor
  • Mediainfo: Clic para Mostrar Datos Ver
  • Roald y Beatrix (2020) PLACEBO 1080p Latino.mkv
    Format                      : Matroska
    Format version              : Version 4
    File size                   : 7.20 GiB
    Duration                    : 1 h 10 min
    Overall bit rate            : 14.7 Mb/s
    Movie name                  : Roald & Beatrix: The Tail of the Curious Mouse (2020) CinemaniaHDD.Net
    Encoded date                : UTC 2021-07-08 21:18:40
    Writing application         : mkvmerge v56.1.0 ('My Friend') 64-bit
    Writing library             : libebml v1.4.2 + libmatroska v1.6.4
    Attachments                 : CINEMANIAHD.png

    Video
    ID                          : 1
    Format                      : AVC
    Format/Info                 : Advanced Video Codec
    Format profile              : High@L4.1
    Format settings             : CABAC / 4 Ref Frames
    Format settings, CABAC      : Yes
    Format settings, Reference  : 4 frames
    Codec ID                    : V_MPEG4/ISO/AVC
    Duration                    : 1 h 10 min
    Bit rate                    : 12.7 Mb/s
    Width                       : 1 920 pixels
    Height                      : 1 080 pixels
    Display aspect ratio        : 16:9
    Frame rate mode             : Constant
    Frame rate                  : 25.000 FPS
    Color space                 : YUV
    Chroma subsampling          : 4:2:0
    Bit depth                   : 8 bits
    Scan type                   : Progressive
    Bits/(Pixel*Frame)          : 0.246
    Stream size                 : 6.26 GiB (87%)
    Title                       : Full HD1080p [CinemaniaHDD]
    Writing library             : x264 core 157 r2935 545de2f
    Encoding settings           : cabac=1 / ref=4 / deblock=1:0:0 / analyse=0x3:0x133 / me=tesa / subme=11 / psy=1 / psy_rd=1.00:0.00 / mixed_ref=1 / me_range=24 / chroma_me=1 / trellis=2 / 8x8dct=1 / cqm=0 / deadzone=21,11 / fast_pskip=0 / chroma_qp_offset=-2 / threads=24 / lookahead_threads=6 / sliced_threads=0 / nr=0 / decimate=1 / interlaced=0 / bluray_compat=0 / constrained_intra=0 / bframes=16 / b_pyramid=2 / b_adapt=2 / b_bias=0 / direct=3 / weightb=1 / open_gop=0 / weightp=2 / keyint=250 / keyint_min=25 / scenecut=40 / intra_refresh=0 / rc_lookahead=60 / rc=crf / mbtree=1 / crf=19.0 / qcomp=0.60 / qpmin=0 / qpmax=69 / qpstep=4 / vbv_maxrate=62500 / vbv_bufsize=78125 / crf_max=0.0 / nal_hrd=none / filler=0 / ip_ratio=1.40 / aq=1:1.00
    Default                     : Yes
    Forced                      : Yes
    Color range                 : Limited
    Color primaries             : BT.709
    Transfer characteristics    : BT.709
    Matrix coefficients         : BT.709

    Audio #1
    ID                          : 2
    Format                      : AC-3
    Format/Info                 : Audio Coding 3
    Commercial name             : Dolby Digital
    Codec ID                    : A_AC3
    Duration                    : 1 h 10 min
    Bit rate mode               : Constant
    Bit rate                    : 384 kb/s
    Channel(s)                  : 6 channels
    Channel layout              : L R C LFE Ls Rs
    Sampling rate               : 48.0 kHz
    Frame rate                  : 31.250 FPS (1536 SPF)
    Compression mode            : Lossy
    Stream size                 : 193 MiB (3%)
    Title                       : Español Latino [CinemaniaHDD]
    Language                    : Spanish
    Service kind                : Complete Main
    Default                     : Yes
    Forced                      : Yes

    Audio #2
    ID                          : 3
    Format                      : DTS
    Format/Info                 : Digital Theater Systems
    Codec ID                    : A_DTS
    Duration                    : 1 h 10 min
    Bit rate mode               : Constant
    Bit rate                    : 1 509 kb/s
    Channel(s)                  : 6 channels
    Channel layout              : C L R Ls Rs LFE
    Sampling rate               : 48.0 kHz
    Frame rate                  : 93.750 FPS (512 SPF)
    Bit depth                   : 24 bits
    Compression mode            : Lossy
    Stream size                 : 759 MiB (10%)
    Title                       : Ingles [CinemaniaHDD]
    Default                     : No
    Forced                      : No

    Text #1
    ID                          : 4
    Format                      : UTF-8
    Codec ID                    : S_TEXT/UTF8
    Codec ID/Info               : UTF-8 Plain Text
    Duration                    : 1 h 9 min
    Bit rate                    : 1 b/s
    Count of elements           : 17
    Stream size                 : 636 Bytes (0%)
    Title                       : Forzados-SRT [CinemaniaHDD]
    Language                    : Spanish
    Default                     : Yes
    Forced                      : Yes

    Text #2
    ID                          : 5
    Format                      : UTF-8
    Codec ID                    : S_TEXT/UTF8
    Codec ID/Info               : UTF-8 Plain Text
    Duration                    : 1 h 9 min
    Bit rate                    : 53 b/s
    Count of elements           : 850
    Stream size                 : 27.3 KiB (0%)
    Title                       : Español-SRT [CinemaniaHDD]
    Language                    : Spanish
    Default                     : No
    Forced                      : No

    Text #3
    ID                          : 6
    ID in the original source m : 4608 (0x1200)
    Format                      : PGS
    Muxing mode                 : zlib
    Codec ID                    : S_HDMV/PGS
    Codec ID/Info               : Picture based subtitle format used on BDs/HD-DVDs
    Duration                    : 1 h 9 min
    Bit rate                    : 40.6 kb/s
    Count of elements           : 2056
    Stream size                 : 20.1 MiB (0%)
    Title                       : Ingles-PGS [CinemaniaHDD]
    Language                    : English
    Default                     : No
    Forced                      : No
    Original source medium      : Blu-ray

    Menu
    00:00:00.000                : Chapter 01
    00:07:06.040                : Chapter 02
    00:15:06.200                : Chapter 03
    00:27:12.120                : Chapter 04
    00:39:00.000                : Chapter 05
    00:46:47.360                : Chapter 06
    00:56:09.120                : Chapter 07
    01:02:42.080                : Chapter 08

  • Peso: 7.20 GiB

Sinopsis

Descargar Roald y Beatrix: La Cola del raton Curioso (2020) PLACEBO 1080p Latino. Roald & Beatrix, la cola del ratón curioso, una conmovedora película navideña inspirada en el verdadero encuentro entre un Roald Dahl de seis años y su ídolo Beatrix Potter. Una historia mágica de lo que realmente puede suceder cuando eres lo suficientemente valiente como para seguir tus sueños. Junto a Dawn French, quien interpreta a Beatrix, el elenco incluye a Jessica Hynes, Rob Brydon, Alison Steadman, Nina Sosanya, Bill Bailey y Nick Mohammed.

Ficha técnica

Video trailer de la película

Enlaces de descarga

Rip de Bluray

Descargar Roald y Beatrix: La Cola del raton Curioso (2020) PLACEBO 1080p Latino




Aportes de DPeliculasHDmega la pass es:dpeliculashdmega.org Aportes de CinemaniaHD la pass es:cinemaniahdd.com

Películas relacionadas

Roald y Beatrix: La Cola del raton Curioso (2020) PLACEBO 1080p Latino pelicula full hd, Roald y Beatrix: La Cola del raton Curioso (2020) PLACEBO 1080p Latino mega latino, Roald y Beatrix: La Cola del raton Curioso (2020) PLACEBO 1080p Latino 4k latino, Roald y Beatrix: La Cola del raton Curioso (2020) PLACEBO 1080p Latino pelicula completa, Roald y Beatrix: La Cola del raton Curioso (2020) PLACEBO 1080p Latino descargar gratis, descargar Roald y Beatrix: La Cola del raton Curioso (2020) PLACEBO 1080p Latino pelicula latino, Roald y Beatrix: La Cola del raton Curioso (2020) PLACEBO 1080p Latino 1 link mega, Roald y Beatrix: La Cola del raton Curioso (2020) PLACEBO 1080p Latino 1 link google drive, Roald y Beatrix: La Cola del raton Curioso (2020) PLACEBO 1080p Latino hd 1080p latino.
Comentarios 0