×

¿Problemas para descargar con Mozilla, EDGE? Deshabilita la opción "Abrir vinculos en una pestaña nueva" tal como lo muestra ésta imagen.

Road House (1989) REMUX 1080p Latino – CMHDD

283 vistas

Información de Road House (1989) REMUX 1080p Latino – CMHDD

Datos de la película

  • Calidad: Full 1080p
  • Audio: Español Latino AC3 2.0 BLURAY - Ingles DTS 5.1 BLURAY
  • Subtitulos: Español Latino PGS
  • Resolución: 1920x1080p
  • Formato: MKV
  • Codec: H.264
  • Encoder: Dracarys
  • Mediainfo: Clic para Mostrar Datos Ver
  • Format                      : Matroska
    Format version              : Version 4
    File size                   : 17.5 GiB
    Duration                    : 1 h 54 min
    Overall bit rate mode       : Variable
    Overall bit rate            : 21.9 Mb/s
    Movie name                  : Road House (1989) REMUX 1080p Latino - CMHDD
    Encoded date                : UTC 2023-04-07 00:41:49
    Writing application         : mkvmerge v47.0.0 ('Black Flag') 64-bit
    Writing library             : libebml v1.3.10 + libmatroska v1.5.2

    Video
    ID                          : 1
    ID in the original source m : 4113 (0x1011)
    Format                      : MPEG Video
    Format version              : Version 2
    Format profile              : Main@High
    Format settings             : CustomMatrix / BVOP
    Format settings, BVOP       : Yes
    Format settings, Matrix     : Custom
    Format settings, GOP        : M=3, N=12
    Codec ID                    : V_MPEG2
    Codec ID/Info               : MPEG 1 or 2 Video
    Duration                    : 1 h 54 min
    Bit rate mode               : Variable
    Bit rate                    : 18.1 Mb/s
    Maximum bit rate            : 39.0 Mb/s
    Width                       : 1 920 pixels
    Height                      : 1 080 pixels
    Display aspect ratio        : 16:9
    Frame rate mode             : Constant
    Frame rate                  : 23.976 (24000/1001) FPS
    Color space                 : YUV
    Chroma subsampling          : 4:2:0
    Bit depth                   : 8 bits
    Scan type                   : Progressive
    Compression mode            : Lossy
    Bits/(Pixel*Frame)          : 0.363
    Time code of first frame    : 00:00:00:00
    Time code source            : Group of pictures header
    GOP, Open/Closed            : Open
    GOP, Open/Closed of first f : Closed
    Stream size                 : 14.4 GiB (82%)
    Default                     : Yes
    Forced                      : No
    Original source medium      : Blu-ray

    Audio #1
    ID                          : 2
    ID in the original source m : 4355 (0x1103)
    Format                      : DTS XLL
    Format/Info                 : Digital Theater Systems
    Commercial name             : DTS-HD Master Audio
    Codec ID                    : A_DTS
    Duration                    : 1 h 54 min
    Bit rate mode               : Variable
    Bit rate                    : 3 411 kb/s
    Channel(s)                  : 6 channels
    Channel layout              : C L R Ls Rs LFE
    Sampling rate               : 48.0 kHz
    Frame rate                  : 93.750 FPS (512 SPF)
    Bit depth                   : 24 bits
    Compression mode            : Lossless
    Stream size                 : 2.72 GiB (16%)
    Language                    : English
    Default                     : No
    Forced                      : No
    Original source medium      : Blu-ray

    Audio #2
    ID                          : 3
    ID in the original source m : 4353 (0x1101)
    Format                      : AC-3
    Format/Info                 : Audio Coding 3
    Commercial name             : Dolby Digital
    Codec ID                    : A_AC3
    Duration                    : 1 h 54 min
    Bit rate mode               : Constant
    Bit rate                    : 224 kb/s
    Channel(s)                  : 2 channels
    Channel layout              : L R
    Sampling rate               : 48.0 kHz
    Frame rate                  : 31.250 FPS (1536 SPF)
    Compression mode            : Lossy
    Stream size                 : 183 MiB (1%)
    Language                    : Spanish
    Service kind                : Complete Main
    Default                     : Yes
    Forced                      : No
    Original source medium      : Blu-ray

    Audio #3
    ID                          : 4
    ID in the original source m : 4354 (0x1102)
    Format                      : AC-3
    Format/Info                 : Audio Coding 3
    Commercial name             : Dolby Digital
    Format settings             : Dolby Surround
    Codec ID                    : A_AC3
    Duration                    : 1 h 54 min
    Bit rate mode               : Constant
    Bit rate                    : 224 kb/s
    Channel(s)                  : 2 channels
    Channel layout              : L R
    Sampling rate               : 48.0 kHz
    Frame rate                  : 31.250 FPS (1536 SPF)
    Compression mode            : Lossy
    Stream size                 : 183 MiB (1%)
    Language                    : English
    Service kind                : Complete Main
    Default                     : No
    Forced                      : No
    Original source medium      : Blu-ray

    Text #1
    ID                          : 5
    ID in the original source m : 4609 (0x1201)
    Format                      : PGS
    Muxing mode                 : zlib
    Codec ID                    : S_HDMV/PGS
    Codec ID/Info               : Picture based subtitle format used on BDs/HD-DVDs
    Duration                    : 1 h 47 min
    Bit rate                    : 21.3 kb/s
    Frame rate                  : 0.284 FPS
    Count of elements           : 1838
    Stream size                 : 16.4 MiB (0%)
    Language                    : Spanish
    Default                     : No
    Forced                      : No
    Original source medium      : Blu-ray

    Text #2
    ID                          : 6
    ID in the original source m : 4610 (0x1202)
    Format                      : PGS
    Muxing mode                 : zlib
    Codec ID                    : S_HDMV/PGS
    Codec ID/Info               : Picture based subtitle format used on BDs/HD-DVDs
    Duration                    : 1 h 32 min
    Bit rate                    : 214 b/s
    Frame rate                  : 0.004 FPS
    Count of elements           : 20
    Stream size                 : 146 KiB (0%)
    Language                    : Spanish
    Default                     : No
    Forced                      : No
    Original source medium      : Blu-ray

    Menu
    00:00:00.000                : en:Capítulo 01
    00:04:10.291                : en:Capítulo 02
    00:06:23.383                : en:Capítulo 03
    00:09:46.669                : en:Capítulo 04
    00:12:36.505                : en:Capítulo 05
    00:16:24.942                : en:Capítulo 06
    00:21:58.650                : en:Capítulo 07
    00:25:43.166                : en:Capítulo 08
    00:29:46.701                : en:Capítulo 09
    00:32:23.066                : en:Capítulo 10
    00:36:41.824                : en:Capítulo 11
    00:39:13.184                : en:Capítulo 12
    00:42:06.565                : en:Capítulo 13
    00:46:01.925                : en:Capítulo 14
    00:47:46.738                : en:Capítulo 15
    00:51:03.018                : en:Capítulo 16
    00:53:56.107                : en:Capítulo 17
    00:57:45.336                : en:Capítulo 18
    00:59:41.703                : en:Capítulo 19
    01:06:28.067                : en:Capítulo 20
    01:10:56.585                : en:Capítulo 21
    01:15:47.292                : en:Capítulo 22
    01:23:44.936                : en:Capítulo 23
    01:29:25.985                : en:Capítulo 24
    01:35:48.743                : en:Capítulo 25
    01:40:42.494                : en:Capítulo 26
    01:44:04.279                : en:Capítulo 27
    01:49:24.724                : en:Capítulo 28

  • Peso: 17.5 GiB

Sinopsis

Dalton tiene un doctorado en Filosofía, pero ha optado por ganarse la vida como vigilante de locales de alterne, una profesión bastante bien remunerada. Contratado para mantener el orden en el Double Duce en Jasper, Missouri, resulta herido en su primera noche en el local y es atendido por «Doc» Clay, una bella doctora de la localidad. Enseguida se enamora de ella, pero hay otro hombre que se interpone entre ambos: Brad Wesley, un extorsionista y capo mafioso.

Ficha técnica

Video trailer de la película

Enlaces de descarga

Rip de Bluray

Descargar Road House (1989) REMUX 1080p Latino – CMHDD


Aportes de DPeliculasHDmega la pass es:dpeliculashdmega.org Aportes de CinemaniaHD la pass es:cinemaniahdd.com Aportes recientes:cinemaniahdd.net
Guardado en : Acción , Suspenso

Películas relacionadas

  • Tiburón (1975) REMUX 1080p Latino-CMHDD

    Tiburón (1975) REMUX 1080p Latino-CMHDD

    1975
    Tiburón (1975) REMUX 1080p Latino-CMHDD

    2h 4m 1975

    Descargar Tiburón (1975) REMUX 1080p Latino-CMHDD. En la costa de un pequeño pueblo del Este de Estados...

    Director: Tom Joyner

    Género: Aventura

    Actores: Ted Grossman

  • Oblivion (2013) REMUX 4K HDR Latino – CMHDD

    Oblivion (2013) REMUX 4K HDR Latino – CMHDD

    2013
    Oblivion (2013) REMUX 4K HDR Latino – CMHDD

    2 h 4 min 2013

    Jack Harper es uno de los últimos técnicos de reparación de drones que permanece en la Tierra. Parte...

    Director: Joseph Kosinski

    Género: 4K HDR

    Actores: Zoë Bell

  • El bebé de Rosemary (1968) 1080p Latino-CMHDD

    El bebé de Rosemary (1968) 1080p Latino-CMHDD

    1968
    El bebé de Rosemary (1968) 1080p Latino-CMHDD

    2h 18m 1968

    Descargar El bebé de Rosemary (1968) 1080p Latino-CMHDD. Una joven pareja, Rosemary y Guy, se muda a...

    Director: Roman Polanski

    Género: Drama

    Actores: William Castle

descargar Road House (1989) REMUX 1080p Latino – CMHDD Full 1080p 1080p gratis, Road House (1989) REMUX 1080p Latino – CMHDD Full 1080p mega 1 link, Road House (1989) REMUX 1080p Latino – CMHDD Full 1080p pelicula completa, descargar Road House (1989) REMUX 1080p Latino – CMHDD Full 1080p gratis en mega.

Road House (1989) REMUX 1080p Latino – CMHDD pelicula full hd, Road House (1989) REMUX 1080p Latino – CMHDD mega latino, Road House (1989) REMUX 1080p Latino – CMHDD 4k latino, Road House (1989) REMUX 1080p Latino – CMHDD pelicula completa, Road House (1989) REMUX 1080p Latino – CMHDD descargar gratis, descargar Road House (1989) REMUX 1080p Latino – CMHDD pelicula latino, Road House (1989) REMUX 1080p Latino – CMHDD 1 link mega, Road House (1989) REMUX 1080p Latino – CMHDD 1 link google drive, Road House (1989) REMUX 1080p Latino – CMHDD hd 1080p latino.
Comentarios 0