×

¿Problemas para descargar con Mozilla, EDGE? Deshabilita la opción "Abrir vinculos en una pestaña nueva" tal como lo muestra ésta imagen.

Riverdale (2021 – 2022) Sexta Temporada CW WEB-DL 1080p Latino

20 vistas

Información de Riverdale (2021 – 2022) Sexta Temporada CW WEB-DL 1080p Latino

Datos de la película

  • Calidad: 1080p
  • Audio: Español Latino AC3 5.1 WEB-DL - Ingles AC3 5.1 WEB-DL
  • Subtitulos: Español Latino SRT- FORZADOS SRT
  • Resolución: 1920x1080
  • Formato: MKV
  • Codec: H.264
  • Encoder: cinemaniahdd
  • Mediainfo: Clic para Mostrar Datos Ver
  • Riverdale T06E01 CW WEB-DL 1080p Latino [CNMNHDD].mkv
    Format                      : Matroska
    Format version              : Version 4
    File size                   : 1.94 GiB
    Duration                    : 42 min 30 s
    Overall bit rate mode       : Variable
    Overall bit rate            : 6 519 kb/s
    Movie name                  : Riverdale S06E01 [1080p] - CinemaniaHDD.Net
    Encoded date                : UTC 2022-11-17 00:56:43
    Writing application         : mkvmerge v59.0.0 ('Shining Star') 64-bit
    Writing library             : libebml v1.4.2 + libmatroska v1.6.4

    Video
    ID                          : 1
    Format                      : AVC
    Format/Info                 : Advanced Video Codec
    Format profile              : Main@L4
    Format settings             : CABAC / 3 Ref Frames
    Format settings, CABAC      : Yes
    Format settings, Reference  : 3 frames
    Codec ID                    : V_MPEG4/ISO/AVC
    Duration                    : 42 min 30 s
    Bit rate mode               : Variable
    Bit rate                    : 5 800 kb/s
    Maximum bit rate            : 8 700 kb/s
    Width                       : 1 920 pixels
    Height                      : 1 080 pixels
    Display aspect ratio        : 16:9
    Frame rate mode             : Constant
    Frame rate                  : 23.976 (24000/1001) FPS
    Color space                 : YUV
    Chroma subsampling          : 4:2:0
    Bit depth                   : 8 bits
    Scan type                   : Progressive
    Bits/(Pixel*Frame)          : 0.117
    Stream size                 : 1.71 GiB (88%)
    Title                       : CinemaniaHDD
    Writing library             : x264 core 148 r2727 7d026e8
    Default                     : Yes
    Forced                      : No

    Audio #1
    ID                          : 2
    Format                      : AC-3
    Format/Info                 : Audio Coding 3
    Commercial name             : Dolby Digital
    Codec ID                    : A_AC3
    Duration                    : 42 min 30 s
    Bit rate mode               : Constant
    Bit rate                    : 384 kb/s
    Channel(s)                  : 6 channels
    Channel layout              : L R C LFE Ls Rs
    Sampling rate               : 48.0 kHz
    Frame rate                  : 31.250 FPS (1536 SPF)
    Compression mode            : Lossy
    Stream size                 : 117 MiB (6%)
    Title                       : Español latino [CinemaniaHDD]
    Language                    : Spanish
    Service kind                : Complete Main
    Default                     : No
    Forced                      : No

    Audio #2
    ID                          : 3
    Format                      : AC-3
    Format/Info                 : Audio Coding 3
    Commercial name             : Dolby Digital
    Codec ID                    : A_AC3
    Duration                    : 42 min 30 s
    Bit rate mode               : Constant
    Bit rate                    : 384 kb/s
    Channel(s)                  : 6 channels
    Channel layout              : L R C LFE Ls Rs
    Sampling rate               : 48.0 kHz
    Frame rate                  : 31.250 FPS (1536 SPF)
    Compression mode            : Lossy
    Stream size                 : 117 MiB (6%)
    Title                       : Inglés [CinemaniaHDD]
    Language                    : English
    Service kind                : Complete Main
    Default                     : No
    Forced                      : No

    Text #1
    ID                          : 4
    Format                      : UTF-8
    Codec ID                    : S_TEXT/UTF8
    Codec ID/Info               : UTF-8 Plain Text
    Duration                    : 41 min 52 s
    Bit rate                    : 0 b/s
    Count of elements           : 6
    Stream size                 : 185 Bytes (0%)
    Title                       : Forzados [CinemaniaHDD]
    Language                    : Spanish
    Default                     : No
    Forced                      : Yes

    Text #2
    ID                          : 5
    Format                      : UTF-8
    Codec ID                    : S_TEXT/UTF8
    Codec ID/Info               : UTF-8 Plain Text
    Duration                    : 42 min 16 s
    Bit rate                    : 73 b/s
    Count of elements           : 658
    Stream size                 : 22.9 KiB (0%)
    Title                       : Español latino [CinemaniaHDD]
    Language                    : Spanish
    Default                     : No
    Forced                      : No

    Text #3
    ID                          : 6
    Format                      : UTF-8
    Codec ID                    : S_TEXT/UTF8
    Codec ID/Info               : UTF-8 Plain Text
    Duration                    : 41 min 51 s
    Bit rate                    : 81 b/s
    Count of elements           : 704
    Stream size                 : 24.9 KiB (0%)
    Title                       : Inglés [CinemaniaHDD]
    Language                    : English
    Default                     : No
    Forced                      : No

     

  • Peso: 1.94 GiB Aprox ---- 29 GiB in 22 Chapters.

Sinopsis

El paso a la edad adulta incluye sexo, romance, escuela y familia. Para Archie y sus amigos, también hay misterios oscuros.

Ficha técnica

Video trailer de la película

Enlaces de descarga

Rip de Bluray

Descargar Riverdale (2021 – 2022) Sexta Temporada CW WEB-DL 1080p Latino




Aportes de DPeliculasHDmega la pass es:dpeliculashdmega.org Aportes de CinemaniaHD la pass es:cinemaniahdd.com
Guardado en : Crimen , Drama , Misterio , Series

Películas relacionadas

descargar Riverdale (2021 – 2022) Sexta Temporada CW WEB-DL 1080p Latino 1080p 1080p gratis, Riverdale (2021 – 2022) Sexta Temporada CW WEB-DL 1080p Latino 1080p mega 1 link, Riverdale (2021 – 2022) Sexta Temporada CW WEB-DL 1080p Latino 1080p serie completa, descargar Riverdale (2021 – 2022) Sexta Temporada CW WEB-DL 1080p Latino 1080p gratis en mega.

Riverdale (2021 – 2022) Sexta Temporada CW WEB-DL 1080p Latino pelicula full hd, Riverdale (2021 – 2022) Sexta Temporada CW WEB-DL 1080p Latino mega latino, Riverdale (2021 – 2022) Sexta Temporada CW WEB-DL 1080p Latino 4k latino, Riverdale (2021 – 2022) Sexta Temporada CW WEB-DL 1080p Latino pelicula completa, Riverdale (2021 – 2022) Sexta Temporada CW WEB-DL 1080p Latino descargar gratis, descargar Riverdale (2021 – 2022) Sexta Temporada CW WEB-DL 1080p Latino pelicula latino, Riverdale (2021 – 2022) Sexta Temporada CW WEB-DL 1080p Latino 1 link mega, Riverdale (2021 – 2022) Sexta Temporada CW WEB-DL 1080p Latino 1 link google drive, Riverdale (2021 – 2022) Sexta Temporada CW WEB-DL 1080p Latino hd 1080p latino.
Comentarios 0