×

¿Problemas para descargar con Mozilla, EDGE? Deshabilita la opción "Abrir vinculos en una pestaña nueva" tal como lo muestra ésta imagen.

Riverdale (2017) Primera Temporada [NF] WEB-DL 1080p Latino

1.096 vistas

Información de Riverdale (2017) Primera Temporada [NF] WEB-DL 1080p Latino

Datos de la película

  • Calidad: WEBDL
  • Audio: Español Latino AC3 5.1 Netflix - Ingles AC3 5.1 Netflix
  • Subtitulos: Español Latino SRT - Ingles SRT
  • Resolución: 1920x1080p
  • Formato: MKV
  • Codec: H.264
  • Encoder: Dracarys
  • Mediainfo: Clic para Mostrar Datos Ver
  • Format                      : Matroska
    Format version              : Version 4
    File size                   : 1.18 GiB
    Duration                    : 46 min 55 s
    Overall bit rate mode       : Variable
    Overall bit rate            : 3 604 kb/s
    Encoded date                : UTC 2019-01-13 06:25:07 / UTC 2018-09-05 13:08:37
    Writing application         : mkvmerge v11.0.0 ('Alive') 64bit
    Writing library             : libebml v1.3.4 + libmatroska v1.4.5 / Lavf58.0.0

    Video
    ID                          : 1
    Format                      : AVC
    Format/Info                 : Advanced Video Codec
    Format profile              : High@L4
    Format settings             : CABAC / 4 Ref Frames
    Format settings, CABAC      : Yes
    Format settings, ReFrames   : 4 frames
    Codec ID                    : V_MPEG4/ISO/AVC
    Duration                    : 46 min 55 s
    Bit rate mode               : Variable
    Bit rate                    : 2 764 kb/s
    Maximum bit rate            : 20.0 Mb/s
    Width                       : 1 920 pixels
    Height                      : 1 080 pixels
    Display aspect ratio        : 16:9
    Frame rate mode             : Constant
    Frame rate                  : 23.976 (24000/1001) FPS
    Color space                 : YUV
    Chroma subsampling          : 4:2:0
    Bit depth                   : 8 bits
    Scan type                   : Progressive
    Bits/(Pixel*Frame)          : 0.056
    Stream size                 : 928 MiB (77%)
    Writing library             : x264 core 148
    Encoding settings           : cabac=1 / ref=4 / deblock=1:0:0 / analyse=0x3:0x111 / me=umh / subme=10 / psy=1 / psy_rd=1.00:0.00 / mixed_ref=1 / me_range=120 / chroma_me=1 / trellis=2 / 8x8dct=1 / cqm=0 / deadzone=21,11 / fast_pskip=1 / chroma_qp_offset=-2 / threads=8 / lookahead_threads=2 / sliced_threads=0 / nr=0 / decimate=1 / interlaced=0 / bluray_compat=0 / stitchable=1 / constrained_intra=0 / bframes=16 / b_pyramid=2 / b_adapt=2 / b_bias=0 / direct=3 / weightb=1 / open_gop=0 / weightp=2 / keyint=240 / keyint_min=121 / scenecut=0 / intra_refresh=0 / rc_lookahead=240 / rc=crf / mbtree=1 / crf=20.0 / qcomp=0.50 / qpmin=6 / qpmax=51 / qpstep=4 / vbv_maxrate=20000 / vbv_bufsize=25000 / crf_max=0.0 / nal_hrd=vbr / filler=0 / ip_ratio=1.40 / aq=1:0.80
    Default                     : Yes
    Forced                      : No
    Statistics Tags Issue       : mkvmerge v11.0.0 ('Alive') 64bit 2019-01-13 06:25:07 / mkvmerge v11.0.0 ('Alive') 64bit 2019-01-13 06:25:07 / UTC 2018-09-05 13:08:37
    FromStats_BitRate           : 2833813
    FromStats_Duration          : 00:46:55.063000000
    FromStats_FrameCount        : 67494
    FromStats_StreamSize        : 997170567

    Audio #1
    ID                          : 2
    Format                      : AC-3
    Format/Info                 : Audio Coding 3
    Commercial name             : Dolby Digital
    Codec ID                    : A_AC3
    Duration                    : 46 min 55 s
    Bit rate mode               : Constant
    Bit rate                    : 384 kb/s
    Channel(s)                  : 6 channels
    Channel layout              : L R C LFE Ls Rs
    Sampling rate               : 48.0 kHz
    Frame rate                  : 31.250 FPS (1536 SPF)
    Bit depth                   : 16 bits
    Compression mode            : Lossy
    Stream size                 : 129 MiB (11%)
    Language                    : Spanish
    Service kind                : Complete Main
    Default                     : Yes
    Forced                      : No
    Encoded date                : UTC 2018-09-05 13:08:36
    Statistics Tags Issue       : mkvmerge v11.0.0 ('Alive') 64bit 2019-01-13 06:25:07 / mkvmerge v11.0.0 ('Alive') 64bit 2019-01-13 06:25:07 / UTC 2018-09-05 13:08:37
    FromStats_BitRate           : 384000
    FromStats_Duration          : 00:46:55.136000000
    FromStats_FrameCount        : 87973
    FromStats_StreamSize        : 135126528

    Audio #2
    ID                          : 3
    Format                      : AC-3
    Format/Info                 : Audio Coding 3
    Commercial name             : Dolby Digital
    Codec ID                    : A_AC3
    Duration                    : 46 min 55 s
    Bit rate mode               : Constant
    Bit rate                    : 384 kb/s
    Channel(s)                  : 6 channels
    Channel layout              : L R C LFE Ls Rs
    Sampling rate               : 48.0 kHz
    Frame rate                  : 31.250 FPS (1536 SPF)
    Bit depth                   : 16 bits
    Compression mode            : Lossy
    Stream size                 : 129 MiB (11%)
    Service kind                : Complete Main
    Default                     : No
    Forced                      : No
    Encoded date                : UTC 2018-09-05 13:08:37
    Statistics Tags Issue       : mkvmerge v11.0.0 ('Alive') 64bit 2019-01-13 06:25:07 / mkvmerge v11.0.0 ('Alive') 64bit 2019-01-13 06:25:07 / UTC 2018-09-05 13:08:37
    FromStats_BitRate           : 384000
    FromStats_Duration          : 00:46:55.136000000
    FromStats_FrameCount        : 87973
    FromStats_StreamSize        : 135126528

    Text #1
    ID                          : 4
    Format                      : UTF-8
    Codec ID                    : S_TEXT/UTF8
    Codec ID/Info               : UTF-8 Plain Text
    Title                       : Spanish
    Language                    : Spanish
    Default                     : No
    Forced                      : No
    Statistics Tags Issue       : mkvmerge v11.0.0 ('Alive') 64bit 2019-01-13 06:25:07 / mkvmerge v11.0.0 ('Alive') 64bit 2019-01-13 06:25:07 / UTC 2018-09-05 13:08:37
    FromStats_BitRate           : 78
    FromStats_Duration          : 00:46:38.087000000
    FromStats_FrameCount        : 743
    FromStats_StreamSize        : 27485

    Text #2
    ID                          : 5
    Format                      : UTF-8
    Codec ID                    : S_TEXT/UTF8
    Codec ID/Info               : UTF-8 Plain Text
    Title                       : English
    Language                    : English
    Default                     : No
    Forced                      : No
    Statistics Tags Issue       : mkvmerge v11.0.0 ('Alive') 64bit 2019-01-13 06:25:07 / mkvmerge v11.0.0 ('Alive') 64bit 2019-01-13 06:25:07 / UTC 2018-09-05 13:08:37
    FromStats_BitRate           : 79
    FromStats_Duration          : 00:45:51.333000000
    FromStats_FrameCount        : 889
    FromStats_StreamSize        : 27504

     

  • Peso: 1.18 GiB X Capitulo

Sinopsis

Al mismo tiempo que un nuevo año escolar da comienzo, la ciudad de Riverdale aún está reponiéndose de la trágica muerte reciente de Jason Blossom. Los acontecimientos que han tenido lugar durante el verano han hecho que Archie Andrews (K.J. Apa) se dé cuenta de que quiere seguir una carrera musical y no seguir los pasos de su padre. Asimismo, a Archie aún le pesa haber roto su amistad con Jughead Jones (Cole Sprouse).

Mientras tanto, Betty Cooper (Lili Reinhart) está ansiosa de ver a Archie, de quien está enamorada, después de haber estado fuera durante el verano, sin embargo aún no está lista para revelarle sus verdaderos sentimientos. Cuando una nueva estudiante, Veronica Lodge (Camila Mendes), llega a Riverdale desde Nueva York junto a su madre, nace la chispa entre ella y Archie. Pero Veronica no quiere poner su nueva amistad con Betty en riesgo.

Ficha técnica

Video trailer de la película

Enlaces de descarga

Rip de Bluray

Descargar Riverdale (2017) Primera Temporada [NF] WEB-DL 1080p Latino




Aportes de DPeliculasHDmega la pass es:dpeliculashdmega.org Aportes de CinemaniaHD la pass es:cinemaniahdd.com
Guardado en : Drama , Misterio , Series

Películas relacionadas

  • Elvis (2022) WEB-DL 4K UHD HDR Latino

    Elvis (2022) WEB-DL 4K UHD HDR Latino

    2022
    Elvis (2022) WEB-DL 4K UHD HDR Latino

    2h 39m 2022

    Descargar Elvis (2022) WEB-DL 4K UHD HDR Latino. La película explora la vida y la música de Elvis Presley...

    Director: Baz Luhrmann

    Género: 4K HDR

    Actores: Yola

  • Elvis (2022) WEB-DL 1080p Latino

    Elvis (2022) WEB-DL 1080p Latino

    2022
    Elvis (2022) WEB-DL 1080p Latino

    2h 39m 2022

    Descargar Elvis (2022) WEB-DL 1080p Latino. La película explora la vida y la música de Elvis Presley...

    Director: Baz Luhrmann

    Género: Drama

    Actores: Yola

Riverdale (2017) Primera Temporada [NF] WEB-DL 1080p Latino pelicula full hd, Riverdale (2017) Primera Temporada [NF] WEB-DL 1080p Latino mega latino, Riverdale (2017) Primera Temporada [NF] WEB-DL 1080p Latino 4k latino, Riverdale (2017) Primera Temporada [NF] WEB-DL 1080p Latino pelicula completa, Riverdale (2017) Primera Temporada [NF] WEB-DL 1080p Latino descargar gratis, descargar Riverdale (2017) Primera Temporada [NF] WEB-DL 1080p Latino pelicula latino, Riverdale (2017) Primera Temporada [NF] WEB-DL 1080p Latino 1 link mega, Riverdale (2017) Primera Temporada [NF] WEB-DL 1080p Latino 1 link google drive, Riverdale (2017) Primera Temporada [NF] WEB-DL 1080p Latino hd 1080p latino.
Comentarios 1
  • cristian - 20 enero, 2019

    wowww muchas gracias de verdad un millon de gracias!!!!