×

¿Problemas para descargar con Mozilla, EDGE? Deshabilita la opción "Abrir vinculos en una pestaña nueva" tal como lo muestra ésta imagen.

Riverdale (2017-2018) Segunda Temporada [NF] WEB-DL 1080p Latino

1.104 vistas

Información de Riverdale (2017-2018) Segunda Temporada [NF] WEB-DL 1080p Latino

Datos de la película

  • Calidad: WEBDL
  • Audio: Español Latino AC3 5.1 Netflix - Ingles AC3 5.1 Netflix
  • Subtitulos: Español Latino SRT - Ingles SRT
  • Resolución: 1920x1080p
  • Formato: MKV
  • Codec: H.264
  • Encoder: Dracarys
  • Mediainfo: Clic para Mostrar Datos Ver
  • Format                      : Matroska
    Format version              : Version 4
    File size                   : 1.03 GiB
    Duration                    : 42 min 30 s
    Overall bit rate mode       : Variable
    Overall bit rate            : 3 482 kb/s
    Encoded date                : UTC 2019-01-13 15:33:53 / UTC 2018-09-18 02:05:05
    Writing application         : mkvmerge v11.0.0 ('Alive') 64bit
    Writing library             : libebml v1.3.4 + libmatroska v1.4.5 / Lavf58.0.0

    Video
    ID                          : 1
    Format                      : AVC
    Format/Info                 : Advanced Video Codec
    Format profile              : High@L4
    Format settings             : CABAC / 4 Ref Frames
    Format settings, CABAC      : Yes
    Format settings, ReFrames   : 4 frames
    Codec ID                    : V_MPEG4/ISO/AVC
    Duration                    : 42 min 30 s
    Bit rate mode               : Variable
    Bit rate                    : 2 645 kb/s
    Maximum bit rate            : 20.0 Mb/s
    Width                       : 1 920 pixels
    Height                      : 1 080 pixels
    Display aspect ratio        : 16:9
    Frame rate mode             : Constant
    Frame rate                  : 23.976 (24000/1001) FPS
    Color space                 : YUV
    Chroma subsampling          : 4:2:0
    Bit depth                   : 8 bits
    Scan type                   : Progressive
    Bits/(Pixel*Frame)          : 0.053
    Stream size                 : 804 MiB (76%)
    Writing library             : x264 core 148 r2714 2daf636
    Encoding settings           : cabac=1 / ref=4 / deblock=1:0:0 / analyse=0x3:0x111 / me=umh / subme=10 / psy=1 / psy_rd=1.00:0.00 / mixed_ref=1 / me_range=120 / chroma_me=1 / trellis=2 / 8x8dct=1 / cqm=0 / deadzone=21,11 / fast_pskip=1 / chroma_qp_offset=-2 / threads=8 / lookahead_threads=2 / sliced_threads=0 / nr=0 / decimate=1 / interlaced=0 / bluray_compat=0 / stitchable=1 / constrained_intra=0 / bframes=16 / b_pyramid=2 / b_adapt=2 / b_bias=0 / direct=3 / weightb=1 / open_gop=0 / weightp=2 / keyint=240 / keyint_min=121 / scenecut=0 / intra_refresh=0 / rc_lookahead=240 / rc=crf / mbtree=1 / crf=20.0 / qcomp=0.50 / qpmin=6 / qpmax=51 / qpstep=4 / vbv_maxrate=20000 / vbv_bufsize=25000 / crf_max=0.0 / nal_hrd=vbr / filler=0 / ip_ratio=1.40 / aq=1:0.80
    Default                     : Yes
    Forced                      : No
    Statistics Tags Issue       : mkvmerge v11.0.0 ('Alive') 64bit 2019-01-13 15:33:53 / mkvmerge v11.0.0 ('Alive') 64bit 2019-01-13 15:33:53 / UTC 2018-09-18 02:05:05
    FromStats_BitRate           : 2720609
    FromStats_Duration          : 00:42:22.999000000
    FromStats_FrameCount        : 60971
    FromStats_StreamSize        : 864813373

    Audio #1
    ID                          : 2
    Format                      : AC-3
    Format/Info                 : Audio Coding 3
    Commercial name             : Dolby Digital
    Codec ID                    : A_AC3
    Duration                    : 42 min 30 s
    Bit rate mode               : Constant
    Bit rate                    : 384 kb/s
    Channel(s)                  : 6 channels
    Channel layout              : L R C LFE Ls Rs
    Sampling rate               : 48.0 kHz
    Frame rate                  : 31.250 FPS (1536 SPF)
    Bit depth                   : 16 bits
    Compression mode            : Lossy
    Stream size                 : 117 MiB (11%)
    Language                    : Spanish
    Service kind                : Complete Main
    Default                     : Yes
    Forced                      : No
    Encoded date                : UTC 2018-09-18 02:04:50
    Statistics Tags Issue       : mkvmerge v11.0.0 ('Alive') 64bit 2019-01-13 15:33:53 / mkvmerge v11.0.0 ('Alive') 64bit 2019-01-13 15:33:53 / UTC 2018-09-18 02:05:05
    FromStats_BitRate           : 384000
    FromStats_Duration          : 00:42:30.944000000
    FromStats_FrameCount        : 79717
    FromStats_StreamSize        : 122445312

    Audio #2
    ID                          : 3
    Format                      : AC-3
    Format/Info                 : Audio Coding 3
    Commercial name             : Dolby Digital
    Codec ID                    : A_AC3
    Duration                    : 42 min 30 s
    Bit rate mode               : Constant
    Bit rate                    : 384 kb/s
    Channel(s)                  : 6 channels
    Channel layout              : L R C LFE Ls Rs
    Sampling rate               : 48.0 kHz
    Frame rate                  : 31.250 FPS (1536 SPF)
    Bit depth                   : 16 bits
    Compression mode            : Lossy
    Stream size                 : 117 MiB (11%)
    Service kind                : Complete Main
    Default                     : No
    Forced                      : No
    Encoded date                : UTC 2018-09-18 02:05:05
    Statistics Tags Issue       : mkvmerge v11.0.0 ('Alive') 64bit 2019-01-13 15:33:53 / mkvmerge v11.0.0 ('Alive') 64bit 2019-01-13 15:33:53 / UTC 2018-09-18 02:05:05
    FromStats_BitRate           : 384000
    FromStats_Duration          : 00:42:30.944000000
    FromStats_FrameCount        : 79717
    FromStats_StreamSize        : 122445312

    Text #1
    ID                          : 4
    Format                      : UTF-8
    Codec ID                    : S_TEXT/UTF8
    Codec ID/Info               : UTF-8 Plain Text
    Title                       : Spanish
    Language                    : Spanish
    Default                     : No
    Forced                      : No
    Statistics Tags Issue       : mkvmerge v11.0.0 ('Alive') 64bit 2019-01-13 15:33:53 / mkvmerge v11.0.0 ('Alive') 64bit 2019-01-13 15:33:53 / UTC 2018-09-18 02:05:05
    FromStats_BitRate           : 63
    FromStats_Duration          : 00:42:20.621000000
    FromStats_FrameCount        : 542
    FromStats_StreamSize        : 20184

    Text #2
    ID                          : 5
    Format                      : UTF-8
    Codec ID                    : S_TEXT/UTF8
    Codec ID/Info               : UTF-8 Plain Text
    Title                       : English
    Language                    : English
    Default                     : No
    Forced                      : No
    Statistics Tags Issue       : mkvmerge v11.0.0 ('Alive') 64bit 2019-01-13 15:33:53 / mkvmerge v11.0.0 ('Alive') 64bit 2019-01-13 15:33:53 / UTC 2018-09-18 02:05:05
    FromStats_BitRate           : 72
    FromStats_Duration          : 00:41:38.162000000
    FromStats_FrameCount        : 573
    FromStats_StreamSize        : 22602

     

  • Peso: 1.00 GiB X capitulo Aproximadamente

Sinopsis

Segunda temporada de «Riverdale», el thriller juvenil basado en los míticos personajes de los cómics de «Archie». El asesinato de Jason Blossom se ha resuelto, pero algo oscuro parece haberse asentado en el pueblo y las vidas de Archie, Jughead, Betty y Veronica nunca volverán a ser lo mismo, como si algo o alguien hubiese contaminado su esencia y se hubiese instalado allí para quedarse. O quizá es la madurez, que está llamando a golpes a la puerta…

Mientras Archie espera un milagro en el hospital, su desconfianza hacia todo lo que le rodea se acrecienta, incluyendo la confianza hacia sus amigos. La inocencia que le caracterizaba parece descender en caída libre hacia un lugar más oscuro. Esto le afectará en su relación con Jughead, por las sospechas hacia los Serpientes, y con Veronica, quien a su vez se ve afectada por nuevos problemas familiares y personales: la reaparición de su despiadado padre, Hiram Lodge, y la llegada de su exnovio de Nueva York, Nick St. Clair. Jughead experimentará un mayor acercamiento a su familia a medida que descubre su propia identidad, especialmente tras entablar relación con una nueva amiga, Toni Topaz (el primer personaje abiertamente bisexual de la serie). Betty, por su parte, deberá enfrentarse a su lado más oscuro y torturado.

«Riverdale» está basada en los míticos personajes de los cómics de «Archie», creados en el año 1941, pero con un giro más oscuro, transgresor y nada inocente, con reminiscencias al cine de terror juvenil de los 90 («Scream», «Sé lo que hicisteis el último verano», «The Faculty»…) y series como «Sensación de vivir». Los cómics se hicieron aún más emblemáticos cuando de ellos nació una serie de dibujos animados para televisión, «Archie y sus amigos». Los personajes forman parte de la cultura colectiva de una generación, sobre todo en EE UU, y dieron lugar a numerosas entregas basadas en los personajes de Archie, Betty, Reggie, Jughead y Veronica.

«Riverdale» está desarrollada por Roberto Aguirre-Sacasa («Glee», «Big Love») y Greg Berlanti («Arrow», «Everwood», «Dawson crece»), que acumulan bastante experiencia como guionistas de series juveniles.

Ficha técnica

Video trailer de la película

Enlaces de descarga

Rip de Bluray

Descargar Riverdale (2017-2018) Segunda Temporada [NF] WEB-DL 1080p Latino




Aportes de DPeliculasHDmega la pass es:dpeliculashdmega.org Aportes de CinemaniaHD la pass es:cinemaniahdd.com
Guardado en : Drama , Misterio , Series

Películas relacionadas

  • Elvis (2022) WEB-DL 4K UHD HDR Latino

    Elvis (2022) WEB-DL 4K UHD HDR Latino

    2022
    Elvis (2022) WEB-DL 4K UHD HDR Latino

    2h 39m 2022

    Descargar Elvis (2022) WEB-DL 4K UHD HDR Latino. La película explora la vida y la música de Elvis Presley...

    Director: Baz Luhrmann

    Género: 4K HDR

    Actores: Yola

  • Elvis (2022) WEB-DL 1080p Latino

    Elvis (2022) WEB-DL 1080p Latino

    2022
    Elvis (2022) WEB-DL 1080p Latino

    2h 39m 2022

    Descargar Elvis (2022) WEB-DL 1080p Latino. La película explora la vida y la música de Elvis Presley...

    Director: Baz Luhrmann

    Género: Drama

    Actores: Yola

Riverdale (2017-2018) Segunda Temporada [NF] WEB-DL 1080p Latino pelicula full hd, Riverdale (2017-2018) Segunda Temporada [NF] WEB-DL 1080p Latino mega latino, Riverdale (2017-2018) Segunda Temporada [NF] WEB-DL 1080p Latino 4k latino, Riverdale (2017-2018) Segunda Temporada [NF] WEB-DL 1080p Latino pelicula completa, Riverdale (2017-2018) Segunda Temporada [NF] WEB-DL 1080p Latino descargar gratis, descargar Riverdale (2017-2018) Segunda Temporada [NF] WEB-DL 1080p Latino pelicula latino, Riverdale (2017-2018) Segunda Temporada [NF] WEB-DL 1080p Latino 1 link mega, Riverdale (2017-2018) Segunda Temporada [NF] WEB-DL 1080p Latino 1 link google drive, Riverdale (2017-2018) Segunda Temporada [NF] WEB-DL 1080p Latino hd 1080p latino.
Comentarios 0