×

¿Problemas para descargar con Mozilla, EDGE? Deshabilita la opción "Abrir vinculos en una pestaña nueva" tal como lo muestra ésta imagen.

River Runs Red (2018) REMUX 1080p Latino

607 vistas

Información de River Runs Red (2018) REMUX 1080p Latino

river runs red 54870 poster

Datos de la película

  • Calidad: Full 1080p
  • Audio: Español Latino AC3 2.0 DVD - Ingles DTS 5.1 BLURAY
  • Subtitulos: Español Latino SRT
  • Resolución: 1920x1080p
  • Formato: MKV
  • Codec: H.264
  • Encoder: CinefiloCool
  • Mediainfo: Clic para Mostrar Datos Ver
  • River Runs Red (2018) REMUX 1080p Latino-CMHDD.mkv
    Format                      : Matroska
    Format version              : Version 4
    File size                   : 16.4 GiB
    Duration                    : 1 h 34 min
    Overall bit rate mode       : Variable
    Overall bit rate            : 25.0 Mb/s
    Movie name                  : River Runs Red (2018) CinemaniaHDD.Net
    Encoded date                : UTC 2019-07-07 05:33:06
    Writing application         : mkvmerge v35.0.0 ('All The Love In The World') 64-bit
    Writing library             : libebml v1.3.9 + libmatroska v1.5.2
    Attachments                 : CINEMANIAHD.png

    Video
    ID                          : 1
    Format                      : AVC
    Format/Info                 : Advanced Video Codec
    Format profile              : High@L4.1
    Format settings             : CABAC / 4 Ref Frames
    Format settings, CABAC      : Yes
    Format settings, ReFrames   : 4 frames
    Codec ID                    : V_MPEG4/ISO/AVC
    Duration                    : 1 h 34 min
    Bit rate mode               : Variable
    Bit rate                    : 20.7 Mb/s
    Maximum bit rate            : 36.0 Mb/s
    Width                       : 1 920 pixels
    Height                      : 1 080 pixels
    Display aspect ratio        : 16:9
    Frame rate mode             : Constant
    Frame rate                  : 23.976 (24000/1001) FPS
    Color space                 : YUV
    Chroma subsampling          : 4:2:0
    Bit depth                   : 8 bits
    Scan type                   : Progressive
    Bits/(Pixel*Frame)          : 0.417
    Stream size                 : 13.6 GiB (83%)
    Title                       : Full HD1080p [REMUX]
    Default                     : Yes
    Forced                      : No

    Audio #1
    ID                          : 2
    Format                      : AC-3
    Format/Info                 : Audio Coding 3
    Commercial name             : Dolby Digital
    Codec ID                    : A_AC3
    Duration                    : 1 h 34 min
    Bit rate mode               : Constant
    Bit rate                    : 256 kb/s
    Channel(s)                  : 2 channels
    Channel layout              : L R
    Sampling rate               : 48.0 kHz
    Frame rate                  : 31.250 FPS (1536 SPF)
    Bit depth                   : 16 bits
    Compression mode            : Lossy
    Delay relative to video     : 90 ms
    Stream size                 : 172 MiB (1%)
    Title                       : AC3_2.0_DVD_Esp
    Language                    : Spanish
    Service kind                : Complete Main
    Default                     : Yes
    Forced                      : Yes

    Audio #2
    ID                          : 3
    Format                      : DTS XLL
    Format/Info                 : Digital Theater Systems
    Commercial name             : DTS-HD Master Audio
    Codec ID                    : A_DTS
    Duration                    : 1 h 34 min
    Bit rate mode               : Variable
    Bit rate                    : 3 985 kb/s
    Channel(s)                  : 6 channels
    Channel layout              : C L R Ls Rs LFE
    Sampling rate               : 48.0 kHz
    Frame rate                  : 93.750 FPS (512 SPF)
    Bit depth                   : 24 bits
    Compression mode            : Lossless
    Stream size                 : 2.62 GiB (16%)
    Title                       : DTS-HD_5.1_Bluray_Eng
    Language                    : English
    Default                     : No
    Forced                      : No

    Text #1
    ID                          : 4
    Format                      : UTF-8
    Codec ID                    : S_TEXT/UTF8
    Codec ID/Info               : UTF-8 Plain Text
    Duration                    : 1 h 31 min
    Bit rate                    : 52 b/s
    Count of elements           : 1278
    Stream size                 : 35.6 KiB (0%)
    Title                       : Sub_Esp
    Language                    : Spanish
    Default                     : No
    Forced                      : No

    Text #2
    ID                          : 5
    Format                      : PGS
    Muxing mode                 : zlib
    Codec ID                    : S_HDMV/PGS
    Codec ID/Info               : Picture based subtitle format used on BDs/HD-DVDs
    Duration                    : 1 h 32 min
    Bit rate                    : 27.3 kb/s
    Count of elements           : 2930
    Stream size                 : 18.1 MiB (0%)
    Title                       : Sub_Eng [PGS]
    Language                    : English
    Default                     : No
    Forced                      : No

    Menu
    00:00:00.000                : en:Chapter 1
    00:12:09.479                : en:Chapter 2
    00:27:25.310                : en:Chapter 3
    00:37:49.642                : en:Chapter 4
    00:46:47.805                : en:Chapter 5
    01:01:18.800                : en:Chapter 6
    01:14:31.467                : en:Chapter 7
    01:29:57.517                : en:Chapter 8

  • Peso: 16.4 GiB

Sinopsis

Descargar River Runs Red (2018) REMUX 1080p Latino. Cuando el hijo de un juez es asesinado por dos policías y el sistema les deja libres, un detective veterano descubre unos archivos incriminatorios. El detective y el juez aunarán fuerzas con otro padre afligido para conseguir justicia.

Ficha técnica

  • Titulo original: River Runs Red
  • Fecha de lanzamiento: 09-11-2018 (United States of America)
  • Director: Wes Miller
  • Género: Remux, Suspenso

Video trailer de la película

Enlaces de descarga

Rip de Bluray

Descargar River Runs Red (2018) REMUX 1080p Latino




Aportes de DPeliculasHDmega la pass es:dpeliculashdmega.org Aportes de CinemaniaHD la pass es:cinemaniahdd.com Aportes recientes:cinemaniahdd.net
Guardado en : Remux , Suspenso

Películas relacionadas

descargar River Runs Red (2018) REMUX 1080p Latino Full 1080p 1080p gratis, River Runs Red (2018) REMUX 1080p Latino Full 1080p mega 1 link, River Runs Red (2018) REMUX 1080p Latino Full 1080p pelicula completa, descargar River Runs Red (2018) REMUX 1080p Latino Full 1080p gratis en mega.

River Runs Red (2018) REMUX 1080p Latino pelicula full hd, River Runs Red (2018) REMUX 1080p Latino mega latino, River Runs Red (2018) REMUX 1080p Latino 4k latino, River Runs Red (2018) REMUX 1080p Latino pelicula completa, River Runs Red (2018) REMUX 1080p Latino descargar gratis, descargar River Runs Red (2018) REMUX 1080p Latino pelicula latino, River Runs Red (2018) REMUX 1080p Latino 1 link mega, River Runs Red (2018) REMUX 1080p Latino 1 link google drive, River Runs Red (2018) REMUX 1080p Latino hd 1080p latino.
Comentarios 0