×

¿Problemas para descargar con Mozilla, EDGE? Deshabilita la opción "Abrir vinculos en una pestaña nueva" tal como lo muestra ésta imagen.

Ritual Maldito (2020) Web-DL 1080p Latino

234 vistas

Información de Ritual Maldito (2020) Web-DL 1080p Latino

Datos de la película

  • Calidad: WEBDL
  • Audio: Se especifica abajo de la Sinopsis
  • Subtitulos: Español Latino SRT- FORZADOS SRT
  • Resolución: 1920x1080p
  • Formato: MKV
  • Codec: H.264
  • Encoder: CinemaniaHD
  • Mediainfo: Clic para Mostrar Datos Ver
  • Ritual Maldito (2020) WebDL 1080p Latino.mkv
    Format                      : Matroska
    Format version              : Version 4
    File size                   : 3.01 GiB
    Duration                    : 1 h 19 min
    Overall bit rate            : 5 420 kb/s
    Movie name                  : Atakan. The Bloody Legend (2020) CinemaniaHDD.Net
    Encoded date                : UTC 2021-07-09 05:17:06
    Writing application         : mkvmerge v56.1.0 ('My Friend') 64-bit
    Writing library             : libebml v1.4.2 + libmatroska v1.6.4
    Cover                       : Yes
    Attachments                 : CINEMANIAHD.png / cover.jpg

    Video
    ID                          : 1
    Format                      : AVC
    Format/Info                 : Advanced Video Codec
    Format profile              : High@L4
    Format settings             : CABAC / 4 Ref Frames
    Format settings, CABAC      : Yes
    Format settings, Reference  : 4 frames
    Codec ID                    : V_MPEG4/ISO/AVC
    Duration                    : 1 h 19 min
    Bit rate                    : 4 777 kb/s
    Width                       : 1 920 pixels
    Height                      : 1 080 pixels
    Display aspect ratio        : 16:9
    Frame rate mode             : Constant
    Frame rate                  : 24.000 FPS
    Color space                 : YUV
    Chroma subsampling          : 4:2:0
    Bit depth                   : 8 bits
    Scan type                   : Progressive
    Bits/(Pixel*Frame)          : 0.096
    Stream size                 : 2.66 GiB (88%)
    Title                       : WEB HD1080p [CinemaniaHDD]
    Language                    : English
    Default                     : Yes
    Forced                      : No
    Color range                 : Limited
    Color primaries             : BT.709
    Transfer characteristics    : BT.709
    Matrix coefficients         : BT.709

    Audio #1
    ID                          : 2
    Format                      : AC-3
    Format/Info                 : Audio Coding 3
    Commercial name             : Dolby Digital
    Codec ID                    : A_AC3
    Duration                    : 1 h 19 min
    Bit rate mode               : Constant
    Bit rate                    : 256 kb/s
    Channel(s)                  : 2 channels
    Channel layout              : L R
    Sampling rate               : 48.0 kHz
    Frame rate                  : 31.250 FPS (1536 SPF)
    Compression mode            : Lossy
    Stream size                 : 146 MiB (5%)
    Title                       : Español Latino [CinemaniaHDD]
    Language                    : Spanish
    Service kind                : Complete Main
    Default                     : Yes
    Forced                      : No

    Audio #2
    ID                          : 3
    Format                      : AC-3
    Format/Info                 : Audio Coding 3
    Commercial name             : Dolby Digital
    Codec ID                    : A_AC3
    Duration                    : 1 h 19 min
    Bit rate mode               : Constant
    Bit rate                    : 384 kb/s
    Channel(s)                  : 6 channels
    Channel layout              : L R C LFE Ls Rs
    Sampling rate               : 48.0 kHz
    Frame rate                  : 31.250 FPS (1536 SPF)
    Compression mode            : Lossy
    Stream size                 : 219 MiB (7%)
    Title                       : Ruso [CinemaniaHDD]
    Language                    : Russian
    Service kind                : Complete Main
    Default                     : No
    Forced                      : No

    Text #1
    ID                          : 4
    Format                      : UTF-8
    Codec ID                    : S_TEXT/UTF8
    Codec ID/Info               : UTF-8 Plain Text
    Duration                    : 43 min 1 s
    Bit rate                    : 0 b/s
    Count of elements           : 2
    Stream size                 : 18.0 Bytes (0%)
    Title                       : Forzados-SRT [CinemaniaHDD]
    Language                    : Spanish
    Default                     : Yes
    Forced                      : No

    Text #2
    ID                          : 5
    Format                      : UTF-8
    Codec ID                    : S_TEXT/UTF8
    Codec ID/Info               : UTF-8 Plain Text
    Duration                    : 1 h 16 min
    Bit rate                    : 40 b/s
    Count of elements           : 717
    Stream size                 : 22.6 KiB (0%)
    Title                       : Español-SRT [CinemaniaHDD]
    Language                    : Spanish
    Default                     : No
    Forced                      : No

    Menu
    00:00:00.000                : 1
    00:16:21.000                : 2
    00:30:27.625                : 3
    00:45:11.708                : 4
    01:00:34.874                : 5
    01:16:45.498                : 6

  • Peso: 3.01 GiB

Sinopsis

Descargar Ritual Maldito (2020) Web-DL 1080p Latino. Atakan es una roca ensangrentada, un bloque de granito gigante, en el que los paganos sacrificaron sacrificios humanos durante siglos. Un grupo de estudiantes historiadores, dirigido por un joven maestro, desciende a las mazmorras de San Petersburgo para encontrar la legendaria piedra. Con cada paso, la situación se sale de control, solo les espera la muerte. El ataque anhela sangre nueva. ¿Quién sobrevivirá?

Español Latino AC3 2.0 – Ruso AC3 5.1

Ficha técnica

  • Titulo original: Атакан. Кровавая легенда
  • Fecha de lanzamiento: 13-08-2020 (Russia)
  • Director: Alexandr Grishin
  • Género: Terror

Video trailer de la película

Enlaces de descarga

Rip de Bluray

Descargar Ritual Maldito (2020) Web-DL 1080p Latino




Aportes de DPeliculasHDmega la pass es:dpeliculashdmega.org Aportes de CinemaniaHD la pass es:cinemaniahdd.com
Guardado en : Terror

Películas relacionadas

  • Lobo Vikingo (2022) NF WEB-DL 1080p Latino

    Lobo Vikingo (2022) NF WEB-DL 1080p Latino

    2022
    Lobo Vikingo (2022) NF WEB-DL 1080p Latino

    1h 38m 2022

    Descargar Lobo Vikingo (2022) NF WEB-DL 1080p Latino. Thale (17) acaba de mudarse con sus padres a un...

    Director: Stig Svendsen

    Género: Netflix

    Actores: Vidar Magnussen

  • Asústame (2020) HD 1080p Latino

    Asústame (2020) HD 1080p Latino

    2020
    Asústame (2020) HD 1080p Latino

    1h 44m 2020

    Descargar Asústame (2020) HD 1080p Latino. Durante un corte de energía, dos extraños cuentan historias...

    Director: Josh Ruben

    Género: Comedia

    Actores: Rebecca Drysdale

  • Asústame (2020) PLACEBO Full HD 1080p Latino

    Asústame (2020) PLACEBO Full HD 1080p Latino

    2020
    Asústame (2020) PLACEBO Full HD 1080p Latino

    1h 44m 2020

    Descargar Asústame (2020) PLACEBO Full HD 1080p Latino. Durante un corte de energía, dos extraños...

    Director: Josh Ruben

    Género: Comedia

    Actores: Rebecca Drysdale

descargar Ritual Maldito (2020) Web-DL 1080p Latino WEBDL 1080p gratis, Ritual Maldito (2020) Web-DL 1080p Latino WEBDL mega 1 link, Ritual Maldito (2020) Web-DL 1080p Latino WEBDL pelicula completa, descargar Ritual Maldito (2020) Web-DL 1080p Latino WEBDL gratis en mega.

Ritual Maldito (2020) Web-DL 1080p Latino pelicula full hd, Ritual Maldito (2020) Web-DL 1080p Latino mega latino, Ritual Maldito (2020) Web-DL 1080p Latino 4k latino, Ritual Maldito (2020) Web-DL 1080p Latino pelicula completa, Ritual Maldito (2020) Web-DL 1080p Latino descargar gratis, descargar Ritual Maldito (2020) Web-DL 1080p Latino pelicula latino, Ritual Maldito (2020) Web-DL 1080p Latino 1 link mega, Ritual Maldito (2020) Web-DL 1080p Latino 1 link google drive, Ritual Maldito (2020) Web-DL 1080p Latino hd 1080p latino.
Comentarios 0