El Origen De Los Guardianes (2012) Full HD 1080p Latino

57 vistas
1 estrella2 estrellas3 estrellas4 estrellas5 estrellas (Ninguna valoración todavía)
Cargando...

Información de El Origen De Los Guardianes (2012) Full HD 1080p Latino

Datos de la película

  • Calidad: Full 1080p
  • Audio: Se especifica abajo de la Sinopsis
  • Subtitulos: Español Latino PGS - Ingles PGS
  • Resolución: 1920x1080p
  • Formato: MKV
  • Codec: H.264
  • Encoder: CinefiloCool
  • Mediainfo: Clic para Mostrar Datos Ver
  • El Origen De Los Guardianes (2012) Full HD 1080p Latino-CMHDD.mkv
    Format                      : Matroska
    Format version              : Version 4
    File size                   : 6.07 GiB
    Duration                    : 1 h 39 min
    Overall bit rate            : 8 747 kb/s
    Movie name                  : Rise of the Guardians (2012) CinemaniaHDD.Net
    Encoded date                : UTC 2021-04-08 02:48:09
    Writing application         : mkvmerge v51.0.0 ('I Wish') 64-bit
    Writing library             : libebml v1.4.0 + libmatroska v1.6.2
    Attachments                 : CINEMANIAHD.png

    Video
    ID                          : 1
    Format                      : AVC
    Format/Info                 : Advanced Video Codec
    Format profile              : High@L4.1
    Format settings             : CABAC / 4 Ref Frames
    Format settings, CABAC      : Yes
    Format settings, Reference  : 4 frames
    Codec ID                    : V_MPEG4/ISO/AVC
    Duration                    : 1 h 37 min
    Bit rate                    : 6 984 kb/s
    Width                       : 1 920 pixels
    Height                      : 1 080 pixels
    Display aspect ratio        : 16:9
    Frame rate mode             : Constant
    Frame rate                  : 23.976 (24000/1001) FPS
    Color space                 : YUV
    Chroma subsampling          : 4:2:0
    Bit depth                   : 8 bits
    Scan type                   : Progressive
    Bits/(Pixel*Frame)          : 0.140
    Stream size                 : 4.74 GiB (78%)
    Title                       : Full HD1080p [CinemaniaHDD]
    Writing library             : x264 core 157 r2935 545de2f
    Encoding settings           : cabac=1 / ref=4 / deblock=1:0:0 / analyse=0x3:0x133 / me=tesa / subme=11 / psy=1 / psy_rd=1.00:0.00 / mixed_ref=1 / me_range=24 / chroma_me=1 / trellis=2 / 8x8dct=1 / cqm=0 / deadzone=21,11 / fast_pskip=0 / chroma_qp_offset=-2 / threads=24 / lookahead_threads=6 / sliced_threads=0 / nr=0 / decimate=1 / interlaced=0 / bluray_compat=0 / constrained_intra=0 / bframes=16 / b_pyramid=2 / b_adapt=2 / b_bias=0 / direct=3 / weightb=1 / open_gop=0 / weightp=2 / keyint=240 / keyint_min=24 / scenecut=40 / intra_refresh=0 / rc_lookahead=60 / rc=crf / mbtree=1 / crf=20.0 / qcomp=0.60 / qpmin=0 / qpmax=69 / qpstep=4 / vbv_maxrate=62500 / vbv_bufsize=78125 / crf_max=0.0 / nal_hrd=none / filler=0 / ip_ratio=1.40 / aq=1:1.00
    Default                     : Yes
    Forced                      : Yes
    Color range                 : Limited
    Color primaries             : BT.709
    Transfer characteristics    : BT.709
    Matrix coefficients         : BT.709

    Audio #1
    ID                          : 2
    Format                      : E-AC-3
    Format/Info                 : Enhanced AC-3
    Commercial name             : Dolby Digital Plus
    Codec ID                    : A_EAC3
    Duration                    : 1 h 39 min
    Bit rate mode               : Constant
    Bit rate                    : 640 kb/s
    Channel(s)                  : 6 channels
    Channel layout              : L R C LFE Ls Rs
    Sampling rate               : 48.0 kHz
    Frame rate                  : 31.250 FPS (1536 SPF)
    Compression mode            : Lossy
    Stream size                 : 455 MiB (7%)
    Title                       : Español Latino EAC3 [CinemaniaHDD]
    Language                    : Spanish
    Service kind                : Complete Main
    Default                     : Yes
    Forced                      : Yes

    Audio #2
    ID                          : 3
    Format                      : AC-3
    Format/Info                 : Audio Coding 3
    Commercial name             : Dolby Digital
    Codec ID                    : A_AC3
    Duration                    : 1 h 37 min
    Bit rate mode               : Constant
    Bit rate                    : 640 kb/s
    Channel(s)                  : 6 channels
    Channel layout              : L R C LFE Ls Rs
    Sampling rate               : 48.0 kHz
    Frame rate                  : 31.250 FPS (1536 SPF)
    Compression mode            : Lossy
    Stream size                 : 445 MiB (7%)
    Title                       : Ingles [CinemaniaHDD]
    Language                    : English
    Service kind                : Complete Main
    Default                     : No
    Forced                      : No

    Audio #3
    ID                          : 4
    Format                      : AC-3
    Format/Info                 : Audio Coding 3
    Commercial name             : Dolby Digital
    Codec ID                    : A_AC3
    Duration                    : 1 h 37 min
    Bit rate mode               : Constant
    Bit rate                    : 640 kb/s
    Channel(s)                  : 6 channels
    Channel layout              : L R C LFE Ls Rs
    Sampling rate               : 48.0 kHz
    Frame rate                  : 31.250 FPS (1536 SPF)
    Compression mode            : Lossy
    Stream size                 : 445 MiB (7%)
    Title                       : Español Latino AC3 [CinemaniaHDD]
    Language                    : Spanish
    Service kind                : Complete Main
    Default                     : No
    Forced                      : No

    Text #1
    ID                          : 5
    Format                      : PGS
    Muxing mode                 : zlib
    Codec ID                    : S_HDMV/PGS
    Codec ID/Info               : Picture based subtitle format used on BDs/HD-DVDs
    Duration                    : 1 h 24 min
    Bit rate                    : 166 b/s
    Count of elements           : 12
    Stream size                 : 103 KiB (0%)
    Title                       : Forzados-PGS [CinemaniaHDD]
    Language                    : Spanish
    Default                     : Yes
    Forced                      : Yes

    Text #2
    ID                          : 6
    Format                      : PGS
    Muxing mode                 : zlib
    Codec ID                    : S_HDMV/PGS
    Codec ID/Info               : Picture based subtitle format used on BDs/HD-DVDs
    Duration                    : 1 h 32 min
    Bit rate                    : 27.1 kb/s
    Count of elements           : 2074
    Stream size                 : 17.9 MiB (0%)
    Title                       : Español-PGS [CinemaniaHDD]
    Language                    : Spanish
    Default                     : No
    Forced                      : No

    Text #3
    ID                          : 7
    Format                      : PGS
    Muxing mode                 : zlib
    Codec ID                    : S_HDMV/PGS
    Codec ID/Info               : Picture based subtitle format used on BDs/HD-DVDs
    Duration                    : 1 h 27 min
    Bit rate                    : 30.7 kb/s
    Count of elements           : 2348
    Stream size                 : 19.2 MiB (0%)
    Title                       : Ingles-PGS [CinemaniaHDD]
    Language                    : English
    Default                     : No
    Forced                      : No

    Text #4
    ID                          : 8
    Format                      : UTF-8
    Codec ID                    : S_TEXT/UTF8
    Codec ID/Info               : UTF-8 Plain Text
    Duration                    : 1 h 24 min
    Bit rate                    : 0 b/s
    Count of elements           : 6
    Stream size                 : 128 Bytes (0%)
    Title                       : Forzados-SRT [CinemaniaHDD]
    Language                    : Spanish
    Default                     : No
    Forced                      : No

    Text #5
    ID                          : 9
    Format                      : UTF-8
    Codec ID                    : S_TEXT/UTF8
    Codec ID/Info               : UTF-8 Plain Text
    Duration                    : 1 h 32 min
    Bit rate                    : 44 b/s
    Count of elements           : 1037
    Stream size                 : 29.8 KiB (0%)
    Title                       : Español-SRT [CinemaniaHDD]
    Language                    : Spanish
    Default                     : No
    Forced                      : No

    Menu
    00:00:00.000                : en:00:00:00.000
    00:03:51.481                : en:00:03:51.481
    00:10:34.843                : en:00:10:34.843
    00:16:17.643                : en:00:16:17.643
    00:24:49.363                : en:00:24:49.363
    00:30:38.378                : en:00:30:38.378
    00:36:38.947                : en:00:36:38.947
    00:43:05.166                : en:00:43:05.166
    00:50:22.311                : en:00:50:22.311
    00:58:09.611                : en:00:58:09.611
    01:03:55.331                : en:01:03:55.331
    01:09:12.815                : en:01:09:12.815
    01:14:03.189                : en:01:14:03.189
    01:20:44.923                : en:01:20:44.923
    01:24:51.503                : en:01:24:51.503
    01:28:33.892                : en:01:28:33.892

  • Peso: 6.07 GiB

Sinopsis

Descargar El Origen De Los Guardianes (2012) Full HD 1080p Latino. ‘El origen de los guardianes’ es una aventura épica y mágica que cuenta la historia de Santa Claus, el Conejo de Pascua, el Hada de los Dientes y Jack Escarcha – personajes legendarios con desconocidas habilidades extraordinarias. Cuando un espíritu maligno, conocido como Sombra, decide inundar de miedo los corazones de los niños, los Guardianes inmortales unen sus fuerzas para proteger los deseos, las creencias y la imaginación de los niños.

Audio Español Latino EAC3 + AC3 5.1 – Ingles AC3 5.1 Bluray

Ficha técnica

Video trailer de la película

Enlaces de descarga

Rip de Bluray

Descargar El Origen De Los Guardianes (2012) Full HD 1080p Latino




Aportes de DPeliculasHDmega la pass es:dpeliculashdmega.org Aportes de CinemaniaHD la pass es:cinemaniahdd.com

Películas relacionadas

  • Horizon Line (2020) PLACEBO Full HD 1080p Latino

    Horizon Line (2020) PLACEBO Full HD 1080p Latino

    2020
    Horizon Line (2020) PLACEBO Full HD 1080p Latino

    0.0 1h 31m 2020

    Descargar Horizon Line (2020) PLACEBO Full HD 1080p Latino. Una pareja que viaja en un avión pequeño...

    Director: Mikael Marcimain

    Género: FULL 1080p Plateadas

    Actores: Pearl Mackie

  • Vanquish (2021) HD 1080p Latino

    Vanquish (2021) HD 1080p Latino

    2021
    Vanquish (2021) HD 1080p Latino

    3.0 1h 36m 2021

    Victoria es una madre joven que intenta dejar atrás su oscuro pasado como mensajero de drogas ruso,...

    Director: George Gallo

    Género: Acción

    Actores: Yvan Gauthier

  • Madame Curie (2019) PLACEBO Full HD 1080p Latino

    Madame Curie (2019) PLACEBO Full HD 1080p Latino

    2019
    Madame Curie (2019) PLACEBO Full HD 1080p Latino

    0.0 1h 55m 2019

    Descargar Madame Curie (2019) PLACEBO Full HD 1080p Latino. Cuenta la historia de la ganadora del Premio...

    Director: Phoebe Billington

    Género: Drama

    Actores: Tim Woodward

  • Proyecto Exorcismo (2019) PLACEBO Full HD 1080p Latino

    Proyecto Exorcismo (2019) PLACEBO Full HD 1080p Latino

    2019
    Proyecto Exorcismo (2019) PLACEBO Full HD 1080p Latino

    0.0 1h 34m 2019

    Descargar Proyecto Exorcismo (2019) PLACEBO Full HD 1080p Latino. Millennials y emprendedores, Drew y...

    Director: Damien LeVeck

    Género: FULL 1080p Plateadas

    Actores: Tiberiu Harsan

El Origen De Los Guardianes (2012) Full HD 1080p Latino pelicula full hd, El Origen De Los Guardianes (2012) Full HD 1080p Latino mega latino, El Origen De Los Guardianes (2012) Full HD 1080p Latino 4k latino, El Origen De Los Guardianes (2012) Full HD 1080p Latino pelicula completa, El Origen De Los Guardianes (2012) Full HD 1080p Latino descargar gratis, descargar El Origen De Los Guardianes (2012) Full HD 1080p Latino pelicula latino, El Origen De Los Guardianes (2012) Full HD 1080p Latino 1 link mega, El Origen De Los Guardianes (2012) Full HD 1080p Latino 1 link google drive, El Origen De Los Guardianes (2012) Full HD 1080p Latino hd 1080p latino.
Comentarios 1
  • henry - 15 abril, 2021

    Gracias por este aporte, aunque no lo pueda descargar ya que es solo para vip