×

¿Problemas para descargar con Mozilla, EDGE? Deshabilita la opción "Abrir vinculos en una pestaña nueva" tal como lo muestra ésta imagen.

Riesgo Bajo Cero (2021) HD 1080p Latino

234 vistas

Información de Riesgo Bajo Cero (2021) HD 1080p Latino

Datos de la película

  • Calidad: 1080p
  • Audio: Español Latino AC3 5.1 BLURAY - Ingles AC3 5.1 BLURAY
  • Subtitulos: Español Latino SRT- FORZADOS SRT
  • Resolución: 1920x804p
  • Formato: MKV
  • Codec: H.264
  • Encoder: Melkor
  • Mediainfo: Clic para Mostrar Datos Ver
  • Riesgo Bajo Cero (2021) HD 1080p Latino.mkv
    Format                      : Matroska
    Format version              : Version 4
    File size                   : 3.29 GiB
    Duration                    : 1 h 48 min
    Overall bit rate            : 4 325 kb/s
    Movie name                  : The Ice Road (2021) CinemaniaHDD.Net
    Encoded date                : UTC 2021-11-07 02:13:17
    Writing application         : mkvmerge v56.1.0 ('My Friend') 64-bit
    Writing library             : libebml v1.4.2 + libmatroska v1.6.4
    Attachments                 : CINEMANIAHD.png

    Video
    ID                          : 1
    Format                      : AVC
    Format/Info                 : Advanced Video Codec
    Format profile              : High@L4.1
    Format settings             : CABAC / 5 Ref Frames
    Format settings, CABAC      : Yes
    Format settings, Reference  : 5 frames
    Codec ID                    : V_MPEG4/ISO/AVC
    Duration                    : 1 h 48 min
    Bit rate                    : 3 500 kb/s
    Width                       : 1 920 pixels
    Height                      : 804 pixels
    Display aspect ratio        : 2.40:1
    Frame rate mode             : Constant
    Frame rate                  : 24.000 FPS
    Color space                 : YUV
    Chroma subsampling          : 4:2:0
    Bit depth                   : 8 bits
    Scan type                   : Progressive
    Bits/(Pixel*Frame)          : 0.094
    Stream size                 : 2.61 GiB (79%)
    Title                       : HD1080p [CinemaniaHDD]
    Writing library             : x264 core 163 r3059 b684ebe0
    Encoding settings           : cabac=1 / ref=5 / deblock=1:-1:-1 / analyse=0x3:0x133 / me=umh / subme=9 / psy=1 / psy_rd=1.00:0.15 / mixed_ref=1 / me_range=16 / chroma_me=1 / trellis=2 / 8x8dct=1 / cqm=0 / deadzone=21,11 / fast_pskip=1 / chroma_qp_offset=-3 / threads=24 / lookahead_threads=2 / sliced_threads=0 / nr=0 / decimate=1 / interlaced=0 / bluray_compat=0 / constrained_intra=0 / bframes=3 / b_pyramid=2 / b_adapt=2 / b_bias=0 / direct=3 / weightb=1 / open_gop=0 / weightp=2 / keyint=240 / keyint_min=24 / scenecut=40 / intra_refresh=0 / rc_lookahead=60 / rc=abr / mbtree=1 / bitrate=3500 / ratetol=1.0 / qcomp=0.60 / qpmin=0 / qpmax=69 / qpstep=4 / vbv_maxrate=62500 / vbv_bufsize=78125 / nal_hrd=none / filler=0 / ip_ratio=1.40 / aq=1:1.00
    Default                     : Yes
    Forced                      : Yes
    Color range                 : Limited
    Color primaries             : BT.709
    Transfer characteristics    : BT.709
    Matrix coefficients         : BT.709

    Audio #1
    ID                          : 2
    Format                      : AC-3
    Format/Info                 : Audio Coding 3
    Commercial name             : Dolby Digital
    Codec ID                    : A_AC3
    Duration                    : 1 h 48 min
    Bit rate mode               : Constant
    Bit rate                    : 448 kb/s
    Channel(s)                  : 6 channels
    Channel layout              : L R C LFE Ls Rs
    Sampling rate               : 48.0 kHz
    Frame rate                  : 31.250 FPS (1536 SPF)
    Compression mode            : Lossy
    Delay relative to video     : -5 ms
    Stream size                 : 349 MiB (10%)
    Title                       : Español Latino [CinemaniaHDD]
    Language                    : Spanish
    Service kind                : Complete Main
    Default                     : Yes
    Forced                      : Yes

    Audio #2
    ID                          : 3
    Format                      : AC-3
    Format/Info                 : Audio Coding 3
    Commercial name             : Dolby Digital
    Codec ID                    : A_AC3
    Duration                    : 1 h 48 min
    Bit rate mode               : Constant
    Bit rate                    : 448 kb/s
    Channel(s)                  : 6 channels
    Channel layout              : L R C LFE Ls Rs
    Sampling rate               : 48.0 kHz
    Frame rate                  : 31.250 FPS (1536 SPF)
    Compression mode            : Lossy
    Delay relative to video     : -5 ms
    Stream size                 : 349 MiB (10%)
    Title                       : Ingles [CinemaniaHDD]
    Language                    : English
    Service kind                : Complete Main
    Default                     : No
    Forced                      : No

    Text #1
    ID                          : 4
    Format                      : UTF-8
    Codec ID                    : S_TEXT/UTF8
    Codec ID/Info               : UTF-8 Plain Text
    Duration                    : 1 h 42 min
    Bit rate                    : 1 b/s
    Count of elements           : 22
    Stream size                 : 1.14 KiB (0%)
    Title                       : Forzados-SRT [CinemaniaHDD]
    Language                    : Spanish
    Default                     : Yes
    Forced                      : Yes

    Text #2
    ID                          : 5
    Format                      : UTF-8
    Codec ID                    : S_TEXT/UTF8
    Codec ID/Info               : UTF-8 Plain Text
    Duration                    : 1 h 43 min
    Bit rate                    : 47 b/s
    Count of elements           : 1097
    Stream size                 : 35.7 KiB (0%)
    Title                       : Español-SRT [CinemaniaHDD]
    Language                    : Spanish
    Default                     : No
    Forced                      : No

    Text #3
    ID                          : 6
    Format                      : UTF-8
    Codec ID                    : S_TEXT/UTF8
    Codec ID/Info               : UTF-8 Plain Text
    Duration                    : 1 h 40 min
    Bit rate                    : 40 b/s
    Count of elements           : 1069
    Stream size                 : 29.9 KiB (0%)
    Title                       : Ingles-SRT [CinemaniaHDD]
    Language                    : English
    Default                     : No
    Forced                      : No

    Menu
    00:00:00.000                : :Chapter 1
    00:08:07.000                : :Chapter 2
    00:17:16.125                : :Chapter 3
    00:26:19.000                : :Chapter 4
    00:38:57.417                : :Chapter 5
    00:47:56.917                : :Chapter 6
    01:02:20.292                : :Chapter 7
    01:08:20.000                : :Chapter 8
    01:18:20.625                : :Chapter 9
    01:24:47.792                : :Chapter 10
    01:30:45.042                : :Chapter 11
    01:43:16.125                : :Chapter 12

  • Peso: 3.29 GiB

Sinopsis

Descargar Riesgo Bajo Cero (2021) HD 1080p Latino. Una remota mina de diamantes ha colapsado dejando atrapados a un grupo de mineros en una región lejana y helada de Canadá. Como parte de un equipo contratado para rescatarlos, el experimentado conductor de una quitahielos emprende un rescate imposible, teniendo que luchar contra una carretera helada, contra las aguas que están descongelándose y contra una amenaza que no ve venir.

Ficha técnica

Video trailer de la película

Enlaces de descarga

Rip de Bluray

Descargar Riesgo Bajo Cero (2021) HD 1080p Latino




Aportes de DPeliculasHDmega la pass es:dpeliculashdmega.org Aportes de CinemaniaHD la pass es:cinemaniahdd.com
Guardado en : Acción , Aventura , Drama , HD 1080p , Suspenso

Películas relacionadas

descargar Riesgo Bajo Cero (2021) HD 1080p Latino 1080p 1080p gratis, Riesgo Bajo Cero (2021) HD 1080p Latino 1080p mega 1 link, Riesgo Bajo Cero (2021) HD 1080p Latino 1080p pelicula completa, descargar Riesgo Bajo Cero (2021) HD 1080p Latino 1080p gratis en mega.

Riesgo Bajo Cero (2021) HD 1080p Latino pelicula full hd, Riesgo Bajo Cero (2021) HD 1080p Latino mega latino, Riesgo Bajo Cero (2021) HD 1080p Latino 4k latino, Riesgo Bajo Cero (2021) HD 1080p Latino pelicula completa, Riesgo Bajo Cero (2021) HD 1080p Latino descargar gratis, descargar Riesgo Bajo Cero (2021) HD 1080p Latino pelicula latino, Riesgo Bajo Cero (2021) HD 1080p Latino 1 link mega, Riesgo Bajo Cero (2021) HD 1080p Latino 1 link google drive, Riesgo Bajo Cero (2021) HD 1080p Latino hd 1080p latino.
Comentarios 0