×

¿Problemas para descargar con Mozilla, EDGE? Deshabilita la opción "Abrir vinculos en una pestaña nueva" tal como lo muestra ésta imagen.

Ride: Viaje Mortal (2018) REMUX 1080p Latino

359 vistas

Información de Ride: Viaje Mortal (2018) REMUX 1080p Latino

Datos de la película

  • Calidad: Full 1080p
  • Audio: Español Latino AC3 5.1 Netflix - Ingles DTS 5.1 BLURAY
  • Subtitulos: Español Latino PGS - Ingles PGS
  • Resolución: 1920x1080p
  • Formato: MKV
  • Codec: H.264
  • Encoder: Melkor
  • Mediainfo: Clic para Mostrar Datos Ver
  • Ride - Viaje Mortal (2018) REMUX 1080p Latino.mkv
    Format                      : Matroska
    Format version              : Version 4
    File size                   : 13.4 GiB
    Duration                    : 1 h 16 min
    Overall bit rate mode       : Variable
    Overall bit rate            : 25.1 Mb/s
    Movie name                  : Ride (2018) CinemaniaHDD.Net
    Encoded date                : UTC 2020-06-02 02:37:59
    Writing application         : mkvmerge v46.0.0 ('No Deeper Escape') 64-bit
    Writing library             : libebml v1.3.10 + libmatroska v1.5.2
    Attachments                 : CINEMANIAHD.png

    Video
    ID                          : 1
    Format                      : AVC
    Format/Info                 : Advanced Video Codec
    Format profile              : High@L4.1
    Format settings             : CABAC / 4 Ref Frames
    Format settings, CABAC      : Yes
    Format settings, Reference  : 4 frames
    Codec ID                    : V_MPEG4/ISO/AVC
    Duration                    : 1 h 16 min
    Bit rate mode               : Variable
    Bit rate                    : 20.8 Mb/s
    Maximum bit rate            : 36.0 Mb/s
    Width                       : 1 920 pixels
    Height                      : 1 080 pixels
    Display aspect ratio        : 16:9
    Frame rate mode             : Constant
    Frame rate                  : 23.976 (24000/1001) FPS
    Color space                 : YUV
    Chroma subsampling          : 4:2:0
    Bit depth                   : 8 bits
    Scan type                   : Progressive
    Bits/(Pixel*Frame)          : 0.419
    Stream size                 : 11.1 GiB (83%)
    Title                       : REMUX 1080p [CinemaniaHDD]
    Language                    : English
    Default                     : Yes
    Forced                      : No

    Audio #1
    ID                          : 2
    Format                      : AC-3
    Format/Info                 : Audio Coding 3
    Commercial name             : Dolby Digital
    Codec ID                    : A_AC3
    Duration                    : 1 h 16 min
    Bit rate mode               : Constant
    Bit rate                    : 640 kb/s
    Channel(s)                  : 6 channels
    Channel layout              : L R C LFE Ls Rs
    Sampling rate               : 48.0 kHz
    Frame rate                  : 31.250 FPS (1536 SPF)
    Compression mode            : Lossy
    Stream size                 : 349 MiB (3%)
    Title                       : Español Latino [CinemaniaHDD]
    Language                    : Spanish
    Service kind                : Complete Main
    Default                     : Yes
    Forced                      : No

    Audio #2
    ID                          : 3
    Format                      : DTS XLL
    Format/Info                 : Digital Theater Systems
    Commercial name             : DTS-HD Master Audio
    Codec ID                    : A_DTS
    Duration                    : 1 h 16 min
    Bit rate mode               : Variable
    Bit rate                    : 3 625 kb/s
    Channel(s)                  : 6 channels
    Channel layout              : C L R Ls Rs LFE
    Sampling rate               : 48.0 kHz
    Frame rate                  : 93.750 FPS (512 SPF)
    Bit depth                   : 24 bits
    Compression mode            : Lossless
    Stream size                 : 1.93 GiB (14%)
    Title                       : Ingles [CinemaniaHDD]
    Language                    : English
    Default                     : No
    Forced                      : No

    Text #1
    ID                          : 4
    Format                      : PGS
    Muxing mode                 : zlib
    Codec ID                    : S_HDMV/PGS
    Codec ID/Info               : Picture based subtitle format used on BDs/HD-DVDs
    Duration                    : 1 h 12 min
    Bit rate                    : 31.9 kb/s
    Count of elements           : 2451
    Stream size                 : 16.5 MiB (0%)
    Title                       : Español-PGS [CinemaniaHDD]
    Language                    : Spanish
    Default                     : No
    Forced                      : No

    Text #2
    ID                          : 5
    Format                      : PGS
    Muxing mode                 : zlib
    Codec ID                    : S_HDMV/PGS
    Codec ID/Info               : Picture based subtitle format used on BDs/HD-DVDs
    Duration                    : 1 h 12 min
    Bit rate                    : 41.9 kb/s
    Count of elements           : 2873
    Stream size                 : 21.8 MiB (0%)
    Title                       : Ingles-PGS [CinemaniaHDD]
    Language                    : English
    Default                     : No
    Forced                      : No

    Text #3
    ID                          : 6
    Format                      : UTF-8
    Codec ID                    : S_TEXT/UTF8
    Codec ID/Info               : UTF-8 Plain Text
    Duration                    : 1 h 12 min
    Bit rate                    : 0 b/s
    Count of elements           : 10
    Stream size                 : 278 Bytes (0%)
    Title                       : Forzados-SRT [CinemaniaHDD]
    Language                    : Spanish
    Default                     : Yes
    Forced                      : No

    Text #4
    ID                          : 7
    Format                      : UTF-8
    Codec ID                    : S_TEXT/UTF8
    Codec ID/Info               : UTF-8 Plain Text
    Duration                    : 1 h 12 min
    Bit rate                    : 64 b/s
    Count of elements           : 1015
    Stream size                 : 34.5 KiB (0%)
    Title                       : Español-SRT [CinemaniaHDD]
    Language                    : Spanish
    Default                     : No
    Forced                      : No

    Menu
    00:00:00.000                : :Rejection
    00:09:14.971                : :Sentimental
    00:17:35.929                : :Bruno
    00:24:23.044                : :Headed West
    00:34:28.566                : :Best Friends
    00:54:39.192                : :Always Smiling
    01:04:02.672                : :Destination
    01:13:34.076                : :Credits

  • Peso: 13.4 GiB

Sinopsis

Descargar Ride: Viaje Mortal (2018) REMUX 1080p Latino. Una noche en Los Ángeles se convierte en una guerra psicológica de supervivencia cuando un conductor de Uber, James y su pasajera, Jessica, recogen a Bruno, que es carismático pero manipulador.

Ficha técnica

  • Titulo original: Ride
  • Fecha de lanzamiento: 05-10-2018 (United States of America)
  • Director: Jeremy Ungar
  • Género: Remux, Suspenso

Video trailer de la película

Enlaces de descarga

Rip de Bluray

Descargar Ride: Viaje Mortal (2018) REMUX 1080p Latino




Aportes de DPeliculasHDmega la pass es:dpeliculashdmega.org Aportes de CinemaniaHD la pass es:cinemaniahdd.com
Guardado en : Remux , Suspenso

Películas relacionadas

  • Paradise Highway (2022) HD 1080p Latino

    Paradise Highway (2022) HD 1080p Latino

    2022
    Paradise Highway (2022) HD 1080p Latino

    1h 55m 2022

    Descargar Paradise Highway (2022) HD 1080p Latino. Un camionero se ha visto obligado a pasar de contrabando...

    Director: Anna Gutto

    Género: Crimen

    Actores: Xavier Scott Evans

  • Paradise Highway (2022) PLACEBO Full HD 1080p Latino

    Paradise Highway (2022) PLACEBO Full HD 1080p Latino

    2022
    Paradise Highway (2022) PLACEBO Full HD 1080p Latino

    1h 55m 2022

    Descargar Paradise Highway (2022) PLACEBO Full HD 1080p Latino. Un camionero se ha visto obligado a pasar...

    Director: Anna Gutto

    Género: Crimen

    Actores: Xavier Scott Evans

  • Paradise Highway (2022) REMUX 1080p Latino

    Paradise Highway (2022) REMUX 1080p Latino

    2022
    Paradise Highway (2022) REMUX 1080p Latino

    1h 55m 2022

    Descargar Paradise Highway (2022) REMUX 1080p Latino. Un camionero se ha visto obligado a pasar de contrabando...

    Director: Anna Gutto

    Género: Crimen

    Actores: Xavier Scott Evans

  • Mar de sangre (2022) WEB-DL 1080p Latino

    Mar de sangre (2022) WEB-DL 1080p Latino

    2022
    Mar de sangre (2022) WEB-DL 1080p Latino

    1h 27m 2022

    Descargar Mar de sangre (2022) WEB-DL 1080p Latino. Un grupo de amigos que disfrutan de un fin de semana...

    Director: James Nunn

    Género: Acción

    Actores: Thomas Michael Flynn

descargar Ride: Viaje Mortal (2018) REMUX 1080p Latino Full 1080p 1080p gratis, Ride: Viaje Mortal (2018) REMUX 1080p Latino Full 1080p mega 1 link, Ride: Viaje Mortal (2018) REMUX 1080p Latino Full 1080p pelicula completa, descargar Ride: Viaje Mortal (2018) REMUX 1080p Latino Full 1080p gratis en mega.

Ride: Viaje Mortal (2018) REMUX 1080p Latino pelicula full hd, Ride: Viaje Mortal (2018) REMUX 1080p Latino mega latino, Ride: Viaje Mortal (2018) REMUX 1080p Latino 4k latino, Ride: Viaje Mortal (2018) REMUX 1080p Latino pelicula completa, Ride: Viaje Mortal (2018) REMUX 1080p Latino descargar gratis, descargar Ride: Viaje Mortal (2018) REMUX 1080p Latino pelicula latino, Ride: Viaje Mortal (2018) REMUX 1080p Latino 1 link mega, Ride: Viaje Mortal (2018) REMUX 1080p Latino 1 link google drive, Ride: Viaje Mortal (2018) REMUX 1080p Latino hd 1080p latino.
Comentarios 0