×

¿Problemas para descargar con Mozilla, EDGE? Deshabilita la opción "Abrir vinculos en una pestaña nueva" tal como lo muestra ésta imagen.

Riddick: El Amo De La Oscuridad (2013) UNRATED REMUX 1080p Latino

388 vistas

Información de Riddick: El Amo De La Oscuridad (2013) UNRATED REMUX 1080p Latino

Datos de la película

  • Calidad: Full 1080p
  • Audio: Español Latino AC3 2.0 DVD - Ingles DTS 5.1 BLURAY
  • Subtitulos: Español Latino PGS - Ingles PGS
  • Resolución: 1920x1080p
  • Formato: MKV
  • Codec: H.264
  • Encoder: CinefiloCool
  • Mediainfo: Clic para Mostrar Datos Ver
  • Riddick (2013) Unrated DC REMUX 1080p Latino-CMHDD.mkv
    Format                      : Matroska
    Format version              : Version 4
    File size                   : 25.9 GiB
    Duration                    : 2 h 6 min
    Overall bit rate mode       : Variable
    Overall bit rate            : 29.3 Mb/s
    Movie name                  : Riddick (2013) CinemaniaHDD.Net
    Encoded date                : UTC 2020-08-30 19:10:02
    Writing application         : mkvmerge v46.0.0 ('No Deeper Escape') 64-bit
    Writing library             : libebml v1.3.10 + libmatroska v1.5.2
    Attachments                 : CINEMANIAHD.png

    Video
    ID                          : 1
    Format                      : AVC
    Format/Info                 : Advanced Video Codec
    Format profile              : High@L4.1
    Format settings             : CABAC / 4 Ref Frames
    Format settings, CABAC      : Yes
    Format settings, Reference  : 4 frames
    Format settings, GOP        : M=3, N=12
    Codec ID                    : V_MPEG4/ISO/AVC
    Duration                    : 2 h 6 min
    Bit rate mode               : Variable
    Bit rate                    : 25.1 Mb/s
    Maximum bit rate            : 33.0 Mb/s
    Width                       : 1 920 pixels
    Height                      : 1 080 pixels
    Display aspect ratio        : 16:9
    Frame rate mode             : Constant
    Frame rate                  : 23.976 (24000/1001) FPS
    Color space                 : YUV
    Chroma subsampling          : 4:2:0
    Bit depth                   : 8 bits
    Scan type                   : Progressive
    Bits/(Pixel*Frame)          : 0.505
    Stream size                 : 22.2 GiB (86%)
    Title                       : REMUX 1080p [CinemaniaHDD]
    Language                    : English
    Default                     : Yes
    Forced                      : No

    Audio #1
    ID                          : 2
    Format                      : AC-3
    Format/Info                 : Audio Coding 3
    Commercial name             : Dolby Digital
    Codec ID                    : A_AC3
    Duration                    : 2 h 6 min
    Bit rate mode               : Constant
    Bit rate                    : 256 kb/s
    Channel(s)                  : 2 channels
    Channel layout              : L R
    Sampling rate               : 48.0 kHz
    Frame rate                  : 31.250 FPS (1536 SPF)
    Compression mode            : Lossy
    Stream size                 : 232 MiB (1%)
    Title                       : Español Latino [CinemaniaHDD]
    Language                    : Spanish
    Service kind                : Complete Main
    Default                     : Yes
    Forced                      : No

    Audio #2
    ID                          : 3
    Format                      : DTS XLL
    Format/Info                 : Digital Theater Systems
    Commercial name             : DTS-HD Master Audio
    Codec ID                    : A_DTS
    Duration                    : 2 h 6 min
    Bit rate mode               : Variable
    Bit rate                    : 3 877 kb/s
    Channel(s)                  : 6 channels
    Channel layout              : C L R Ls Rs LFE
    Sampling rate               : 48.0 kHz
    Frame rate                  : 93.750 FPS (512 SPF)
    Bit depth                   : 24 bits
    Compression mode            : Lossless
    Stream size                 : 3.43 GiB (13%)
    Title                       : Ingles [CinemaniaHDD]
    Language                    : English
    Default                     : No
    Forced                      : No

    Text #1
    ID                          : 4
    Format                      : PGS
    Muxing mode                 : zlib
    Codec ID                    : S_HDMV/PGS
    Codec ID/Info               : Picture based subtitle format used on BDs/HD-DVDs
    Duration                    : 2 h 1 min
    Bit rate                    : 18.2 kb/s
    Count of elements           : 1714
    Stream size                 : 15.8 MiB (0%)
    Title                       : Español-PGS [CinemaniaHDD]
    Language                    : Spanish
    Default                     : No
    Forced                      : No

    Text #2
    ID                          : 5
    Format                      : PGS
    Muxing mode                 : zlib
    Codec ID                    : S_HDMV/PGS
    Codec ID/Info               : Picture based subtitle format used on BDs/HD-DVDs
    Duration                    : 2 h 1 min
    Bit rate                    : 25.2 kb/s
    Count of elements           : 2361
    Stream size                 : 21.9 MiB (0%)
    Title                       : Ingles-PGS [CinemaniaHDD]
    Language                    : English
    Default                     : No
    Forced                      : No

    Text #3
    ID                          : 6
    Format                      : UTF-8
    Codec ID                    : S_TEXT/UTF8
    Codec ID/Info               : UTF-8 Plain Text
    Duration                    : 34 min 19 s
    Bit rate                    : 1 b/s
    Count of elements           : 12
    Stream size                 : 378 Bytes (0%)
    Title                       : Forzados-SRT [CinemaniaHDD]
    Language                    : Spanish
    Default                     : Yes
    Forced                      : No

    Text #4
    ID                          : 7
    Format                      : UTF-8
    Codec ID                    : S_TEXT/UTF8
    Codec ID/Info               : UTF-8 Plain Text
    Duration                    : 2 h 1 min
    Bit rate                    : 30 b/s
    Count of elements           : 863
    Stream size                 : 27.3 KiB (0%)
    Title                       : Español-SRT [CinemaniaHDD]
    Language                    : Spanish
    Default                     : No
    Forced                      : No

    Menu
    00:00:00.000                : en:The Necromongers
    00:05:35.418                : en:Hard Bounty
    00:12:10.521                : en:Back to Civilization
    00:23:27.364                : en:A Fighting Chance
    00:27:56.425                : en:A True Furyan
    00:32:11.221                : en:Attack of the Necromongers
    00:38:03.698                : en:Lensing & Cleansing
    00:44:20.283                : en:The Lord Marshal's Offer
    00:48:40.876                : en:Mind Regression
    00:56:19.668                : en:Caught
    01:01:16.673                : en:You Can Keep What You Kill
    01:07:35.093                : en:Welcome to Crematoria
    01:15:23.436                : en:Jack's Dead...
    01:19:58.836                : en:A Private War
    01:26:51.832                : en:Feeding Time
    01:31:27.107                : en:Two Killers
    01:39:32.717                : en:Good News & Bad News
    01:45:32.701                : en:Running the Surface
    01:53:45.652                : en:The Big Heat
    02:02:56.160                : en:The Better Killer
    02:06:47.391                : en:End Titles

  • Peso: 25.9 GiB

Sinopsis

Descargar Riddick: El Amo De La Oscuridad (2013) UNRATED REMUX 1080p Latino. Traicionado por su propia especie y dado por muerto en un lejano y desolado planeta, aparentemente sin vida, el duro Riddick tendrá que luchar por la supervivencia contra depredadores alienígenas y cazarrecompensas, convirtiéndose en un ser más poderoso y peligroso que nunca… Tercera entrega de la saga iniciada en «Pitch Black» y continuada en «Las crónicas de Riddick».

Ficha técnica

Video trailer de la película

Enlaces de descarga

Rip de Bluray

Descargar Riddick: El Amo De La Oscuridad (2013) UNRATED REMUX 1080p Latino




Aportes de DPeliculasHDmega la pass es:dpeliculashdmega.org Aportes de CinemaniaHD la pass es:cinemaniahdd.com
Guardado en : Acción , Ciencia ficción , Remux , Suspenso

Películas relacionadas

  • Borrego: Sal Del Camino (2022) HD 1080p Latino

    Borrego: Sal Del Camino (2022) HD 1080p Latino

    2022
    Borrego: Sal Del Camino (2022) HD 1080p Latino

    1h 42m 2022

    Descargar Borrego: Sal Del Camino (2022) HD 1080p Latino. Una joven botánica se traslada a un pequeño...

    Director: Jesse Harris

    Género: Crimen

    Actores: Olivia Trujillo

  • Borrego: Sal Del Camino (2022) REMUX 1080p Latino

    Borrego: Sal Del Camino (2022) REMUX 1080p Latino

    2022
    Borrego: Sal Del Camino (2022) REMUX 1080p Latino

    1h 42m 2022

    Descargar Borrego: Sal Del Camino (2022) REMUX 1080p Latino. Una joven botánica se traslada a un pequeño...

    Director: Jesse Harris

    Género: Crimen

    Actores: Olivia Trujillo

  • Tren Bala (2022) WEB-DL 4K UHD HDR Latino

    Tren Bala (2022) WEB-DL 4K UHD HDR Latino

    2022
    Tren Bala (2022) WEB-DL 4K UHD HDR Latino

    2h 7m 2022

    Descargar Tren Bala (2022) WEB-DL 4K UHD HDR Latino. El desafortunado asesino "Catarina" está decidido...

    Director: Paul Barry

    Género: 4K HDR

    Actores: Zooey Miyoshi

  • Tren Bala (2022) AMZN WEB-DL 1080p Latino

    Tren Bala (2022) AMZN WEB-DL 1080p Latino

    2022
    Tren Bala (2022) AMZN WEB-DL 1080p Latino

    2h 7m 2022

    Descargar Tren Bala (2022) AMZN WEB-DL 1080p Latino. Cinco asesinos a sueldo se encuentran a bordo de...

    Director: Paul Barry

    Género: Acción

    Actores: Zooey Miyoshi

descargar Riddick: El Amo De La Oscuridad (2013) UNRATED REMUX 1080p Latino Full 1080p 1080p gratis, Riddick: El Amo De La Oscuridad (2013) UNRATED REMUX 1080p Latino Full 1080p mega 1 link, Riddick: El Amo De La Oscuridad (2013) UNRATED REMUX 1080p Latino Full 1080p pelicula completa, descargar Riddick: El Amo De La Oscuridad (2013) UNRATED REMUX 1080p Latino Full 1080p gratis en mega.

Riddick: El Amo De La Oscuridad (2013) UNRATED REMUX 1080p Latino pelicula full hd, Riddick: El Amo De La Oscuridad (2013) UNRATED REMUX 1080p Latino mega latino, Riddick: El Amo De La Oscuridad (2013) UNRATED REMUX 1080p Latino 4k latino, Riddick: El Amo De La Oscuridad (2013) UNRATED REMUX 1080p Latino pelicula completa, Riddick: El Amo De La Oscuridad (2013) UNRATED REMUX 1080p Latino descargar gratis, descargar Riddick: El Amo De La Oscuridad (2013) UNRATED REMUX 1080p Latino pelicula latino, Riddick: El Amo De La Oscuridad (2013) UNRATED REMUX 1080p Latino 1 link mega, Riddick: El Amo De La Oscuridad (2013) UNRATED REMUX 1080p Latino 1 link google drive, Riddick: El Amo De La Oscuridad (2013) UNRATED REMUX 1080p Latino hd 1080p latino.
Comentarios 1
  • ocpgaiden - 01 septiembre, 2020

    Gracias por las 3 pelicuas de Riddick BDRemux, saludos