×

¿Problemas para descargar con Mozilla, EDGE? Deshabilita la opción "Abrir vinculos en una pestaña nueva" tal como lo muestra ésta imagen.

Riddick: El Amo De La Oscuridad (2013) Theatrical OPEN MATTE REMUX 1080p Latino

497 vistas

Información de Riddick: El Amo De La Oscuridad (2013) Theatrical OPEN MATTE REMUX 1080p Latino

Datos de la película

  • Calidad: Full 1080p
  • Audio: Se especifica abajo de la Sinopsis
  • Subtitulos: Español Latino SRT- FORZADOS SRT
  • Resolución: 1920x1080p
  • Formato: MKV
  • Codec: H.264
  • Encoder: CinefiloCool
  • Mediainfo: Clic para Mostrar Datos Ver
  • Riddick (2013) Theatrical OPEN MATTE REMUX 1080p Latino-CMHDD.mkv
    Format                      : Matroska
    Format version              : Version 4
    File size                   : 14.3 GiB
    Duration                    : 1 h 54 min
    Overall bit rate mode       : Variable
    Overall bit rate            : 17.9 Mb/s
    Movie name                  : Riddick (2013) CinemaniaHDD.Net
    Encoded date                : UTC 2020-09-02 01:59:50
    Writing application         : mkvmerge v46.0.0 ('No Deeper Escape') 64-bit
    Writing library             : libebml v1.3.10 + libmatroska v1.5.2
    Attachments                 : CINEMANIAHD.png

    Video
    ID                          : 1
    Format                      : AVC
    Format/Info                 : Advanced Video Codec
    Format profile              : High@L4.1
    Format settings             : CABAC / 4 Ref Frames
    Format settings, CABAC      : Yes
    Format settings, Reference  : 4 frames
    Codec ID                    : V_MPEG4/ISO/AVC
    Duration                    : 1 h 54 min
    Bit rate mode               : Variable
    Bit rate                    : 15.9 Mb/s
    Maximum bit rate            : 24.0 Mb/s
    Width                       : 1 920 pixels
    Height                      : 1 080 pixels
    Display aspect ratio        : 16:9
    Frame rate mode             : Constant
    Frame rate                  : 25.000 FPS
    Color space                 : YUV
    Chroma subsampling          : 4:2:0
    Bit depth                   : 8 bits
    Scan type                   : Progressive
    Bits/(Pixel*Frame)          : 0.307
    Stream size                 : 12.4 GiB (87%)
    Title                       : REMUX 1080p [CinemaniaHDD]
    Writing library             : x264 core 157 r2935 545de2f
    Encoding settings           : cabac=1 / ref=4 / deblock=1:-1:-1 / analyse=0x3:0x133 / me=umh / subme=9 / psy=1 / psy_rd=1.00:0.15 / mixed_ref=1 / me_range=16 / chroma_me=1 / trellis=2 / 8x8dct=1 / cqm=0 / deadzone=21,11 / fast_pskip=1 / chroma_qp_offset=-3 / threads=24 / lookahead_threads=2 / sliced_threads=0 / nr=0 / decimate=1 / interlaced=0 / bluray_compat=0 / constrained_intra=0 / bframes=3 / b_pyramid=2 / b_adapt=2 / b_bias=0 / direct=3 / weightb=1 / open_gop=0 / weightp=2 / keyint=250 / keyint_min=25 / scenecut=40 / intra_refresh=0 / rc_lookahead=60 / rc=abr / mbtree=1 / bitrate=15900 / ratetol=1.0 / qcomp=0.60 / qpmin=0 / qpmax=69 / qpstep=4 / vbv_maxrate=24000 / vbv_bufsize=78125 / nal_hrd=vbr / filler=0 / ip_ratio=1.40 / aq=1:1.00
    Default                     : Yes
    Forced                      : No
    Color range                 : Limited
    Color primaries             : BT.709
    Transfer characteristics    : BT.709
    Matrix coefficients         : BT.709

    Audio #1
    ID                          : 2
    Format                      : AC-3
    Format/Info                 : Audio Coding 3
    Commercial name             : Dolby Digital
    Codec ID                    : A_AC3
    Duration                    : 1 h 53 min
    Bit rate mode               : Constant
    Bit rate                    : 256 kb/s
    Channel(s)                  : 2 channels
    Channel layout              : L R
    Sampling rate               : 48.0 kHz
    Frame rate                  : 31.250 FPS (1536 SPF)
    Compression mode            : Lossy
    Delay relative to video     : 136 ms
    Stream size                 : 208 MiB (1%)
    Title                       : Español Latino [CinemaniaHDD]
    Language                    : Spanish
    Service kind                : Complete Main
    Default                     : Yes
    Forced                      : No

    Audio #2
    ID                          : 3
    Format                      : DTS XLL
    Format/Info                 : Digital Theater Systems
    Commercial name             : DTS-HD Master Audio
    Codec ID                    : A_DTS
    Duration                    : 1 h 54 min
    Bit rate mode               : Variable
    Bit rate                    : 2 059 kb/s
    Channel(s)                  : 6 channels
    Channel layout              : C L R Ls Rs LFE
    Sampling rate               : 48.0 kHz
    Frame rate                  : 93.750 FPS (512 SPF)
    Bit depth                   : 16 bits
    Compression mode            : Lossless
    Delay relative to video     : -5 ms
    Stream size                 : 1.64 GiB (11%)
    Title                       : Ingles [CinemaniaHDD]
    Language                    : English
    Default                     : No
    Forced                      : No

    Text #1
    ID                          : 4
    Format                      : UTF-8
    Codec ID                    : S_TEXT/UTF8
    Codec ID/Info               : UTF-8 Plain Text
    Duration                    : 32 min 55 s
    Bit rate                    : 1 b/s
    Count of elements           : 14
    Stream size                 : 390 Bytes (0%)
    Title                       : Forzados-SRT [CinemaniaHDD]
    Language                    : Spanish
    Default                     : Yes
    Forced                      : No

    Text #2
    ID                          : 5
    Format                      : UTF-8
    Codec ID                    : S_TEXT/UTF8
    Codec ID/Info               : UTF-8 Plain Text
    Duration                    : 1 h 48 min
    Bit rate                    : 31 b/s
    Count of elements           : 822
    Stream size                 : 25.1 KiB (0%)
    Title                       : Español-SRT [CinemaniaHDD]
    Language                    : Spanish
    Default                     : No
    Forced                      : No

    Text #3
    ID                          : 6
    Format                      : UTF-8
    Codec ID                    : S_TEXT/UTF8
    Codec ID/Info               : UTF-8 Plain Text
    Duration                    : 1 h 48 min
    Bit rate                    : 33 b/s
    Count of elements           : 803
    Stream size                 : 26.4 KiB (0%)
    Title                       : Ingles-SRT [CinemaniaHDD]
    Language                    : English
    Default                     : No
    Forced                      : No

    Menu
    00:00:00.000                : :Chapter 1
    00:07:41.120                : :Chapter 2
    00:11:46.880                : :Chapter 3
    00:18:05.520                : :Chapter 4
    00:25:36.080                : :Chapter 5
    00:30:51.920                : :Chapter 6
    00:37:51.400                : :Chapter 7
    00:48:23.000                : :Chapter 8
    00:53:38.200                : :Chapter 9
    01:00:48.920                : :Chapter 10
    01:08:49.440                : :Chapter 11
    01:17:41.160                : :Chapter 12
    01:24:02.440                : :Chapter 13
    01:29:50.160                : :Chapter 14
    01:35:55.720                : :Chapter 15
    01:43:27.840                : :Chapter 16
    01:50:04.160                : :Chapter 17

  • Peso: 14.3 GiB

Sinopsis

Descargar Riddick: El Amo De La Oscuridad (2013) Theatrical OPEN MATTE REMUX 1080p Latino. Traicionado por su propia especie y dado por muerto en un lejano y desolado planeta, aparentemente sin vida, el duro Riddick tendrá que luchar por la supervivencia contra depredadores alienígenas y cazarrecompensas, convirtiéndose en un ser más poderoso y peligroso que nunca… Tercera entrega de la saga iniciada en «Pitch Black» y continuada en «Las crónicas de Riddick».

Audio Español Latino AC3 2.0 WebDL – Ingles DTS-HD 5.1 Bluray

Ficha técnica

Video trailer de la película

Enlaces de descarga

Rip de Bluray

Descargar Riddick: El Amo De La Oscuridad (2013) Theatrical OPEN MATTE REMUX 1080p Latino




Aportes de DPeliculasHDmega la pass es:dpeliculashdmega.org Aportes de CinemaniaHD la pass es:cinemaniahdd.com

Películas relacionadas

  • Tren Bala (2022) WEB-DL 4K UHD HDR Latino

    Tren Bala (2022) WEB-DL 4K UHD HDR Latino

    2022
    Tren Bala (2022) WEB-DL 4K UHD HDR Latino

    2h 7m 2022

    Descargar Tren Bala (2022) WEB-DL 4K UHD HDR Latino. El desafortunado asesino "Catarina" está decidido...

    Director: Paul Barry

    Género: 4K HDR

    Actores: Zooey Miyoshi

  • Tren Bala (2022) AMZN WEB-DL 1080p Latino

    Tren Bala (2022) AMZN WEB-DL 1080p Latino

    2022
    Tren Bala (2022) AMZN WEB-DL 1080p Latino

    2h 7m 2022

    Descargar Tren Bala (2022) AMZN WEB-DL 1080p Latino. Cinco asesinos a sueldo se encuentran a bordo de...

    Director: Paul Barry

    Género: Acción

    Actores: Zooey Miyoshi

  • Athena (2022) NF WEB-DL 1080p Latino

    Athena (2022) NF WEB-DL 1080p Latino

    2022
    Athena (2022) NF WEB-DL 1080p Latino

    1h 37m 2022

    Descargar Athena (2022) NF WEB-DL 1080p Latino. Horas después de la trágica muerte de su hermano menor...

    Director: Romain Gavras

    Género: Acción

    Actores: Tarek Haddaji

  • Lou (2022) NF WEB-DL 1080p Latino

    Lou (2022) NF WEB-DL 1080p Latino

    2022
    Lou (2022) NF WEB-DL 1080p Latino

    1h 47m 2022

    Descargar Lou (2022) NF WEB-DL 1080p Latino. Una mujer misteriosa y solitaria lucha contra las inclemencias...

    Director: Anna Foerster

    Género: Acción

    Actores: Toby Levins

descargar Riddick: El Amo De La Oscuridad (2013) Theatrical OPEN MATTE REMUX 1080p Latino Full 1080p 1080p gratis, Riddick: El Amo De La Oscuridad (2013) Theatrical OPEN MATTE REMUX 1080p Latino Full 1080p mega 1 link, Riddick: El Amo De La Oscuridad (2013) Theatrical OPEN MATTE REMUX 1080p Latino Full 1080p pelicula completa, descargar Riddick: El Amo De La Oscuridad (2013) Theatrical OPEN MATTE REMUX 1080p Latino Full 1080p gratis en mega.

Riddick: El Amo De La Oscuridad (2013) Theatrical OPEN MATTE REMUX 1080p Latino pelicula full hd, Riddick: El Amo De La Oscuridad (2013) Theatrical OPEN MATTE REMUX 1080p Latino mega latino, Riddick: El Amo De La Oscuridad (2013) Theatrical OPEN MATTE REMUX 1080p Latino 4k latino, Riddick: El Amo De La Oscuridad (2013) Theatrical OPEN MATTE REMUX 1080p Latino pelicula completa, Riddick: El Amo De La Oscuridad (2013) Theatrical OPEN MATTE REMUX 1080p Latino descargar gratis, descargar Riddick: El Amo De La Oscuridad (2013) Theatrical OPEN MATTE REMUX 1080p Latino pelicula latino, Riddick: El Amo De La Oscuridad (2013) Theatrical OPEN MATTE REMUX 1080p Latino 1 link mega, Riddick: El Amo De La Oscuridad (2013) Theatrical OPEN MATTE REMUX 1080p Latino 1 link google drive, Riddick: El Amo De La Oscuridad (2013) Theatrical OPEN MATTE REMUX 1080p Latino hd 1080p latino.
Comentarios 0