×

¿Problemas para descargar con Mozilla, EDGE? Deshabilita la opción "Abrir vinculos en una pestaña nueva" tal como lo muestra ésta imagen.

Riddick: El Amo De La Oscuridad (2013) UNRATED 1080p Latino

531 vistas

Información de Riddick: El Amo De La Oscuridad (2013) UNRATED 1080p Latino

Datos de la película

  • Calidad: 1080p
  • Audio: Español Latino AC3 2.0 DVD - Ingles AC3 5.1 BLURAY
  • Subtitulos: Español Latino SRT - Ingles SRT
  • Resolución: 1920x800p
  • Formato: MKV
  • Codec: H.264
  • Encoder: CinefiloCool
  • Mediainfo: Clic para Mostrar Datos Ver
  • Riddick (2013) Unrated DC 1080p Latino-CMHDD.mkv
    Format                      : Matroska
    Format version              : Version 4
    File size                   : 3.72 GiB
    Duration                    : 2 h 6 min
    Overall bit rate            : 4 205 kb/s
    Movie name                  : Riddick (2013) CinemaniaHDD.Net
    Encoded date                : UTC 2020-08-31 19:31:17
    Writing application         : mkvmerge v46.0.0 ('No Deeper Escape') 64-bit
    Writing library             : libebml v1.3.10 + libmatroska v1.5.2
    Attachments                 : CINEMANIAHD.png

    Video
    ID                          : 1
    Format                      : AVC
    Format/Info                 : Advanced Video Codec
    Format profile              : High@L4.1
    Format settings             : CABAC / 5 Ref Frames
    Format settings, CABAC      : Yes
    Format settings, Reference  : 5 frames
    Codec ID                    : V_MPEG4/ISO/AVC
    Duration                    : 2 h 6 min
    Bit rate                    : 3 500 kb/s
    Width                       : 1 920 pixels
    Height                      : 800 pixels
    Display aspect ratio        : 2.40:1
    Frame rate mode             : Constant
    Frame rate                  : 23.976 (24000/1001) FPS
    Color space                 : YUV
    Chroma subsampling          : 4:2:0
    Bit depth                   : 8 bits
    Scan type                   : Progressive
    Bits/(Pixel*Frame)          : 0.095
    Stream size                 : 3.10 GiB (83%)
    Title                       : HD1080p [CinemaniaHDD]
    Writing library             : x264 core 157 r2935 545de2f
    Encoding settings           : cabac=1 / ref=5 / deblock=1:-1:-1 / analyse=0x3:0x133 / me=umh / subme=9 / psy=1 / psy_rd=1.00:0.15 / mixed_ref=1 / me_range=16 / chroma_me=1 / trellis=2 / 8x8dct=1 / cqm=0 / deadzone=21,11 / fast_pskip=1 / chroma_qp_offset=-3 / threads=24 / lookahead_threads=2 / sliced_threads=0 / nr=0 / decimate=1 / interlaced=0 / bluray_compat=0 / constrained_intra=0 / bframes=3 / b_pyramid=2 / b_adapt=2 / b_bias=0 / direct=3 / weightb=1 / open_gop=0 / weightp=2 / keyint=240 / keyint_min=24 / scenecut=40 / intra_refresh=0 / rc_lookahead=60 / rc=2pass / mbtree=1 / bitrate=3500 / ratetol=1.0 / qcomp=0.60 / qpmin=0 / qpmax=69 / qpstep=4 / cplxblur=20.0 / qblur=0.5 / vbv_maxrate=62500 / vbv_bufsize=78125 / nal_hrd=none / filler=0 / ip_ratio=1.40 / aq=1:1.00
    Default                     : Yes
    Forced                      : No
    Color range                 : Limited
    Color primaries             : BT.709
    Transfer characteristics    : BT.709
    Matrix coefficients         : BT.709

    Audio #1
    ID                          : 2
    Format                      : AC-3
    Format/Info                 : Audio Coding 3
    Commercial name             : Dolby Digital
    Codec ID                    : A_AC3
    Duration                    : 2 h 6 min
    Bit rate mode               : Constant
    Bit rate                    : 256 kb/s
    Channel(s)                  : 2 channels
    Channel layout              : L R
    Sampling rate               : 48.0 kHz
    Frame rate                  : 31.250 FPS (1536 SPF)
    Compression mode            : Lossy
    Delay relative to video     : -5 ms
    Stream size                 : 232 MiB (6%)
    Title                       : Español Latino [CinemaniaHDD]
    Language                    : Spanish
    Service kind                : Complete Main
    Default                     : Yes
    Forced                      : No

    Audio #2
    ID                          : 3
    Format                      : AC-3
    Format/Info                 : Audio Coding 3
    Commercial name             : Dolby Digital
    Codec ID                    : A_AC3
    Duration                    : 2 h 6 min
    Bit rate mode               : Constant
    Bit rate                    : 448 kb/s
    Channel(s)                  : 6 channels
    Channel layout              : L R C LFE Ls Rs
    Sampling rate               : 48.0 kHz
    Frame rate                  : 31.250 FPS (1536 SPF)
    Compression mode            : Lossy
    Delay relative to video     : -5 ms
    Stream size                 : 406 MiB (11%)
    Title                       : Ingles [CinemaniaHDD]
    Language                    : English
    Service kind                : Complete Main
    Default                     : No
    Forced                      : No

    Text #1
    ID                          : 4
    Format                      : UTF-8
    Codec ID                    : S_TEXT/UTF8
    Codec ID/Info               : UTF-8 Plain Text
    Duration                    : 34 min 19 s
    Bit rate                    : 1 b/s
    Count of elements           : 12
    Stream size                 : 378 Bytes (0%)
    Title                       : Forzados-SRT [CinemaniaHDD]
    Language                    : Spanish
    Default                     : Yes
    Forced                      : No

    Text #2
    ID                          : 5
    Format                      : UTF-8
    Codec ID                    : S_TEXT/UTF8
    Codec ID/Info               : UTF-8 Plain Text
    Duration                    : 2 h 1 min
    Bit rate                    : 30 b/s
    Count of elements           : 863
    Stream size                 : 27.3 KiB (0%)
    Title                       : Español-SRT [CinemaniaHDD]
    Language                    : Spanish
    Default                     : No
    Forced                      : No

    Text #3
    ID                          : 6
    Format                      : UTF-8
    Codec ID                    : S_TEXT/UTF8
    Codec ID/Info               : UTF-8 Plain Text
    Duration                    : 2 h 1 min
    Bit rate                    : 36 b/s
    Count of elements           : 1184
    Stream size                 : 32.1 KiB (0%)
    Title                       : Ingles-SRT [CinemaniaHDD]
    Language                    : English
    Default                     : No
    Forced                      : No

    Menu
    00:00:00.000                : en:The Necromongers
    00:05:35.418                : en:Hard Bounty
    00:12:10.521                : en:Back to Civilization
    00:23:27.364                : en:A Fighting Chance
    00:27:56.425                : en:A True Furyan
    00:32:11.221                : en:Attack of the Necromongers
    00:38:03.698                : en:Lensing & Cleansing
    00:44:20.283                : en:The Lord Marshal's Offer
    00:48:40.876                : en:Mind Regression
    00:56:19.668                : en:Caught
    01:01:16.673                : en:You Can Keep What You Kill
    01:07:35.093                : en:Welcome to Crematoria
    01:15:23.436                : en:Jack's Dead...
    01:19:58.836                : en:A Private War
    01:26:51.832                : en:Feeding Time
    01:31:27.107                : en:Two Killers
    01:39:32.717                : en:Good News & Bad News
    01:45:32.701                : en:Running the Surface
    01:53:45.652                : en:The Big Heat
    02:02:56.160                : en:The Better Killer
    02:06:47.391                : en:End Titles

  • Peso: 3.72 GiB

Sinopsis

Descargar Riddick: El Amo De La Oscuridad (2013) UNRATED 1080p Latino. Traicionado por su propia especie y dado por muerto en un lejano y desolado planeta, aparentemente sin vida, el duro Riddick tendrá que luchar por la supervivencia contra depredadores alienígenas y cazarrecompensas, convirtiéndose en un ser más poderoso y peligroso que nunca… Tercera entrega de la saga iniciada en «Pitch Black» y continuada en «Las crónicas de Riddick».

Ficha técnica

Video trailer de la película

Enlaces de descarga

Rip de Bluray

Descargar Riddick: El Amo De La Oscuridad (2013) UNRATED 1080p Latino




Aportes de DPeliculasHDmega la pass es:dpeliculashdmega.org Aportes de CinemaniaHD la pass es:cinemaniahdd.com

Películas relacionadas

descargar Riddick: El Amo De La Oscuridad (2013) UNRATED 1080p Latino 1080p 1080p gratis, Riddick: El Amo De La Oscuridad (2013) UNRATED 1080p Latino 1080p mega 1 link, Riddick: El Amo De La Oscuridad (2013) UNRATED 1080p Latino 1080p pelicula completa, descargar Riddick: El Amo De La Oscuridad (2013) UNRATED 1080p Latino 1080p gratis en mega.

Riddick: El Amo De La Oscuridad (2013) UNRATED 1080p Latino pelicula full hd, Riddick: El Amo De La Oscuridad (2013) UNRATED 1080p Latino mega latino, Riddick: El Amo De La Oscuridad (2013) UNRATED 1080p Latino 4k latino, Riddick: El Amo De La Oscuridad (2013) UNRATED 1080p Latino pelicula completa, Riddick: El Amo De La Oscuridad (2013) UNRATED 1080p Latino descargar gratis, descargar Riddick: El Amo De La Oscuridad (2013) UNRATED 1080p Latino pelicula latino, Riddick: El Amo De La Oscuridad (2013) UNRATED 1080p Latino 1 link mega, Riddick: El Amo De La Oscuridad (2013) UNRATED 1080p Latino 1 link google drive, Riddick: El Amo De La Oscuridad (2013) UNRATED 1080p Latino hd 1080p latino.
Comentarios 0