Riddick: El Amo De La Oscuridad (2013) UNRATED Full HD 1080p Latino

1.840 vistas
1 estrella2 estrellas3 estrellas4 estrellas5 estrellas (2 votos, promedio: 2,50 de 5)
Cargando...

Información de Riddick: El Amo De La Oscuridad (2013) UNRATED Full HD 1080p Latino

Datos de la película

  • Calidad: Full 1080p
  • Audio: Español Latino AC3 2.0 DVD - Ingles DTS 5.1 BLURAY
  • Subtitulos: Español Latino PGS - Ingles PGS
  • Resolución: 1920x1080p
  • Formato: MKV
  • Codec: H.264
  • Encoder: CinefiloCool
  • Mediainfo: Clic para Mostrar Datos Ver
  • Riddick (2013) Unrated DC Full HD 1080p Latino-CMHDD.mkv
    Format                      : Matroska
    Format version              : Version 4
    File size                   : 5.63 GiB
    Duration                    : 2 h 6 min
    Overall bit rate            : 6 359 kb/s
    Movie name                  : Riddick (2013) CinemaniaHDD.Net
    Encoded date                : UTC 2020-08-31 19:02:49
    Writing application         : mkvmerge v46.0.0 ('No Deeper Escape') 64-bit
    Writing library             : libebml v1.3.10 + libmatroska v1.5.2
    Attachments                 : CINEMANIAHD.png

    Video
    ID                          : 1
    Format                      : AVC
    Format/Info                 : Advanced Video Codec
    Format profile              : High@L4.1
    Format settings             : CABAC / 4 Ref Frames
    Format settings, CABAC      : Yes
    Format settings, Reference  : 4 frames
    Codec ID                    : V_MPEG4/ISO/AVC
    Duration                    : 2 h 6 min
    Bit rate                    : 4 578 kb/s
    Width                       : 1 920 pixels
    Height                      : 1 080 pixels
    Display aspect ratio        : 16:9
    Frame rate mode             : Constant
    Frame rate                  : 23.976 (24000/1001) FPS
    Color space                 : YUV
    Chroma subsampling          : 4:2:0
    Bit depth                   : 8 bits
    Scan type                   : Progressive
    Bits/(Pixel*Frame)          : 0.092
    Stream size                 : 4.05 GiB (72%)
    Title                       : Full HD1080p [CinemaniaHDD]
    Writing library             : x264 core 157 r2935 545de2f
    Encoding settings           : cabac=1 / ref=4 / deblock=1:0:0 / analyse=0x3:0x133 / me=tesa / subme=11 / psy=1 / psy_rd=1.00:0.00 / mixed_ref=1 / me_range=24 / chroma_me=1 / trellis=2 / 8x8dct=1 / cqm=0 / deadzone=21,11 / fast_pskip=0 / chroma_qp_offset=-2 / threads=24 / lookahead_threads=6 / sliced_threads=0 / nr=0 / decimate=1 / interlaced=0 / bluray_compat=0 / constrained_intra=0 / bframes=16 / b_pyramid=2 / b_adapt=2 / b_bias=0 / direct=3 / weightb=1 / open_gop=0 / weightp=2 / keyint=240 / keyint_min=24 / scenecut=40 / intra_refresh=0 / rc_lookahead=60 / rc=crf / mbtree=1 / crf=20.0 / qcomp=0.60 / qpmin=0 / qpmax=69 / qpstep=4 / vbv_maxrate=62500 / vbv_bufsize=78125 / crf_max=0.0 / nal_hrd=none / filler=0 / ip_ratio=1.40 / aq=1:1.00
    Default                     : Yes
    Forced                      : No
    Color range                 : Limited
    Color primaries             : BT.709
    Transfer characteristics    : BT.709
    Matrix coefficients         : BT.709

    Audio #1
    ID                          : 2
    Format                      : AC-3
    Format/Info                 : Audio Coding 3
    Commercial name             : Dolby Digital
    Codec ID                    : A_AC3
    Duration                    : 2 h 6 min
    Bit rate mode               : Constant
    Bit rate                    : 256 kb/s
    Channel(s)                  : 2 channels
    Channel layout              : L R
    Sampling rate               : 48.0 kHz
    Frame rate                  : 31.250 FPS (1536 SPF)
    Compression mode            : Lossy
    Stream size                 : 232 MiB (4%)
    Title                       : Español Latino [CinemaniaHDD]
    Language                    : Spanish
    Service kind                : Complete Main
    Default                     : Yes
    Forced                      : No

    Audio #2
    ID                          : 3
    Format                      : DTS
    Format/Info                 : Digital Theater Systems
    Codec ID                    : A_DTS
    Duration                    : 2 h 6 min
    Bit rate mode               : Constant
    Bit rate                    : 1 509 kb/s
    Channel(s)                  : 6 channels
    Channel layout              : C L R Ls Rs LFE
    Sampling rate               : 48.0 kHz
    Frame rate                  : 93.750 FPS (512 SPF)
    Bit depth                   : 24 bits
    Compression mode            : Lossy
    Stream size                 : 1.34 GiB (24%)
    Title                       : Ingles [CinemaniaHDD]
    Language                    : English
    Default                     : No
    Forced                      : No

    Text #1
    ID                          : 4
    Format                      : PGS
    Muxing mode                 : zlib
    Codec ID                    : S_HDMV/PGS
    Codec ID/Info               : Picture based subtitle format used on BDs/HD-DVDs
    Duration                    : 2 h 1 min
    Bit rate                    : 18.2 kb/s
    Count of elements           : 1714
    Stream size                 : 15.8 MiB (0%)
    Title                       : Español-PGS [CinemaniaHDD]
    Language                    : Spanish
    Default                     : No
    Forced                      : No

    Text #2
    ID                          : 5
    Format                      : PGS
    Muxing mode                 : zlib
    Codec ID                    : S_HDMV/PGS
    Codec ID/Info               : Picture based subtitle format used on BDs/HD-DVDs
    Duration                    : 2 h 1 min
    Bit rate                    : 25.2 kb/s
    Count of elements           : 2361
    Stream size                 : 21.9 MiB (0%)
    Title                       : Ingles-PGS [CinemaniaHDD]
    Language                    : English
    Default                     : No
    Forced                      : No

    Text #3
    ID                          : 6
    Format                      : UTF-8
    Codec ID                    : S_TEXT/UTF8
    Codec ID/Info               : UTF-8 Plain Text
    Duration                    : 34 min 19 s
    Bit rate                    : 1 b/s
    Count of elements           : 12
    Stream size                 : 378 Bytes (0%)
    Title                       : Forzados-SRT [CinemaniaHDD]
    Language                    : Spanish
    Default                     : Yes
    Forced                      : No

    Text #4
    ID                          : 7
    Format                      : UTF-8
    Codec ID                    : S_TEXT/UTF8
    Codec ID/Info               : UTF-8 Plain Text
    Duration                    : 2 h 1 min
    Bit rate                    : 30 b/s
    Count of elements           : 863
    Stream size                 : 27.3 KiB (0%)
    Title                       : Español-SRT [CinemaniaHDD]
    Language                    : Spanish
    Default                     : No
    Forced                      : No

    Menu
    00:00:00.000                : en:The Necromongers
    00:05:35.418                : en:Hard Bounty
    00:12:10.521                : en:Back to Civilization
    00:23:27.364                : en:A Fighting Chance
    00:27:56.425                : en:A True Furyan
    00:32:11.221                : en:Attack of the Necromongers
    00:38:03.698                : en:Lensing & Cleansing
    00:44:20.283                : en:The Lord Marshal's Offer
    00:48:40.876                : en:Mind Regression
    00:56:19.668                : en:Caught
    01:01:16.673                : en:You Can Keep What You Kill
    01:07:35.093                : en:Welcome to Crematoria
    01:15:23.436                : en:Jack's Dead...
    01:19:58.836                : en:A Private War
    01:26:51.832                : en:Feeding Time
    01:31:27.107                : en:Two Killers
    01:39:32.717                : en:Good News & Bad News
    01:45:32.701                : en:Running the Surface
    01:53:45.652                : en:The Big Heat
    02:02:56.160                : en:The Better Killer
    02:06:47.391                : en:End Titles

  • Peso: 5.63 GB

Sinopsis

Descargar Riddick: El Amo De La Oscuridad (2013) UNRATED Full HD 1080p Latino. Traicionado por su propia especie y dado por muerto en un lejano y desolado planeta, aparentemente sin vida, el duro Riddick tendrá que luchar por la supervivencia contra depredadores alienígenas y cazarrecompensas, cnvirtiéndose en un ser más poderoso y peligroso que nunca… Tercera entrega de la saga iniciada en «Pitch Black» y continuada en «Las crónicas de Riddick».

RESUBIDO, NUEVO RIP VERSION UNRATED EN PLACEBO!

Ficha técnica

Video trailer de la película

Enlaces de descarga

Rip de Bluray

Descargar Riddick: El Amo De La Oscuridad (2013) UNRATED Full HD 1080p Latino




Aportes de DPeliculasHDmega la pass es:dpeliculashdmega.org Aportes de CinemaniaHD la pass es:cinemaniahdd.com

Películas relacionadas

  • Hanna (2011) 1080p Latino

    Hanna (2011) 1080p Latino

    2011
    Hanna (2011) 1080p Latino

    0.0 1h 51m 2011

    Descargar Hanna (2011) 1080p Latino. Hanna tiene 16 años. Es brillante, curiosa y una devota hija. Excepcionalmente,...

    Director: Sheila Paige

    Género: Acción

    Actores: Vincent Montuel

  • Hanna (2011) Full HD 1080p Latino

    Hanna (2011) Full HD 1080p Latino

    2011
    Hanna (2011) Full HD 1080p Latino

    5.0 1h 51m 2011

    Descargar Hanna (2011) Full HD 1080p Latino. Hanna tiene 16 años. Es brillante, curiosa y una devota...

    Director: Sheila Paige

    Género: Acción

    Actores: Vincent Montuel

  • Hanna (2011) REMUX 1080p Latino

    Hanna (2011) REMUX 1080p Latino

    2011
    Hanna (2011) REMUX 1080p Latino

    5.0 1h 51m 2011

    Descargar Hanna (2011) REMUX 1080p Latino. Hanna tiene 16 años. Es brillante, curiosa y una devota hija....

    Director: Sheila Paige

    Género: Acción

    Actores: Vincent Montuel

  • Looper: Asesino Del Futuro (2012) 1080p Latino

    Looper: Asesino Del Futuro (2012) 1080p Latino

    2012
    Looper: Asesino Del Futuro (2012) 1080p Latino

    0.0 1h 58m 2012

    Descargar Looper: Asesino Del Futuro (2012) 1080p Latino. Como en 2072 los asesinatos están terminantemente...

    Director: Samuel W. Sullivan

    Género: Acción

    Actores: Xu Qing

Comentarios 8
  • Pedro - 01 septiembre, 2020

    Subiran la version open matte de esta pelicula?

  • Jonna - 20 noviembre, 2017

    SAGA descargada muchas gracias 😀

  • slash - 17 julio, 2017

    Gracias por toda la saga, dejo subtítulos completos srt, saludos.

    https://mega.nz/#F!A9t2wZjb!oUSA9SlKzTUzDJEYm_sIZA

  • Pablo - 06 julio, 2017

    Muchas gracias!! Espectacular colección!!

  • kmilo051 - 05 julio, 2017

    Muchas gracias por la trilogía. Tengo una pregunta, los audios DTS que ponen acá son sólo DTS 5.1 o DTS-HD Master Audio 5.1?

    • deps dpelis - 05 julio, 2017

      DTS 5.1

      • PEDRO OJEDA - 19 abril, 2019

        BUENOS DIAS,,, SI ME CONVIERTO EN USIARIO VIP PUEDO DESCARGAR PELICULAS QUE NO PUEDO ACCEDER SIENDO VISITANTE, ME INTERESAN LAS PELICULAS DE RIDDICK PERO NO PUEDO ACCEDER A LOS LINK DE DESCARGA GRATIS

        • dpelis - 19 abril, 2019

          hola
          cual es el error?