×

¿Problemas para descargar con Mozilla, EDGE? Deshabilita la opción "Abrir vinculos en una pestaña nueva" tal como lo muestra ésta imagen.

Rick and Morty (2021) Temporada 05 REMUX 1080p Latino

352 vistas

Información de Rick and Morty (2021) Temporada 05 REMUX 1080p Latino

Datos de la película

  • Calidad: Full 1080p
  • Audio: Se especifica abajo de la Sinopsis
  • Subtitulos: Español Latino SRT- FORZADOS SRT
  • Resolución: 1920x1080p
  • Formato: MKV
  • Codec: H.264
  • Encoder: CinefiloCool
  • Mediainfo: Clic para Mostrar Datos Ver
  • Rick Y Morty S05E01 (2021) REMUX 1080p Latino-CMHDD.mkv
    Format                      : Matroska
    Format version              : Version 4
    File size                   : 2.68 GiB
    Duration                    : 22 min 22 s
    Overall bit rate mode       : Variable
    Overall bit rate            : 17.1 Mb/s
    Movie name                  : Rick & Morty S05E01 - Mort Dinner Rick Andre CinemaniaHDD.Net
    Encoded date                : UTC 2022-04-12 05:29:16
    Writing application         : mkvmerge v56.1.0 ('My Friend') 64-bit
    Writing library             : libebml v1.4.2 + libmatroska v1.6.4
    Attachments                 : CINEMANIAHD.png

    Video
    ID                          : 1
    Format                      : AVC
    Format/Info                 : Advanced Video Codec
    Format profile              : High@L4.1
    Format settings             : CABAC / 4 Ref Frames
    Format settings, CABAC      : Yes
    Format settings, Reference  : 4 frames
    Format settings, GOP        : M=3, N=12
    Codec ID                    : V_MPEG4/ISO/AVC
    Duration                    : 22 min 22 s
    Bit rate mode               : Variable
    Bit rate                    : 14.7 Mb/s
    Maximum bit rate            : 38.0 Mb/s
    Width                       : 1 920 pixels
    Height                      : 1 080 pixels
    Display aspect ratio        : 16:9
    Frame rate mode             : Constant
    Frame rate                  : 23.976 (24000/1001) FPS
    Color space                 : YUV
    Chroma subsampling          : 4:2:0
    Bit depth                   : 8 bits
    Scan type                   : Progressive
    Bits/(Pixel*Frame)          : 0.295
    Stream size                 : 2.29 GiB (86%)
    Title                       : REMUX HD1080p [CinemaniaHDD]
    Language                    : English
    Default                     : Yes
    Forced                      : Yes

    Audio #1
    ID                          : 2
    Format                      : AC-3
    Format/Info                 : Audio Coding 3
    Commercial name             : Dolby Digital
    Codec ID                    : A_AC3
    Duration                    : 22 min 22 s
    Bit rate mode               : Constant
    Bit rate                    : 256 kb/s
    Channel(s)                  : 2 channels
    Channel layout              : L R
    Sampling rate               : 48.0 kHz
    Frame rate                  : 31.250 FPS (1536 SPF)
    Compression mode            : Lossy
    Stream size                 : 41.0 MiB (1%)
    Title                       : Español Latino [CinemaniaHDD]
    Language                    : Spanish
    Service kind                : Complete Main
    Default                     : Yes
    Forced                      : Yes

    Audio #2
    ID                          : 3
    Format                      : DTS XLL
    Format/Info                 : Digital Theater Systems
    Commercial name             : DTS-HD Master Audio
    Codec ID                    : A_DTS
    Duration                    : 22 min 22 s
    Bit rate mode               : Variable
    Bit rate                    : 2 178 kb/s
    Channel(s)                  : 6 channels
    Channel layout              : C L R Ls Rs LFE
    Sampling rate               : 48.0 kHz
    Frame rate                  : 93.750 FPS (512 SPF)
    Bit depth                   : 16 bits
    Compression mode            : Lossless
    Stream size                 : 349 MiB (13%)
    Title                       : Ingles [CinemaniaHDD]
    Language                    : English
    Default                     : No
    Forced                      : No

    Text #1
    ID                          : 4
    Format                      : UTF-8
    Codec ID                    : S_TEXT/UTF8
    Codec ID/Info               : UTF-8 Plain Text
    Duration                    : 19 min 20 s
    Bit rate                    : 0 b/s
    Count of elements           : 4
    Stream size                 : 58.0 Bytes (0%)
    Title                       : Forzados-SRT [CinemaniaHDD]
    Language                    : Spanish
    Default                     : Yes
    Forced                      : Yes

    Text #2
    ID                          : 5
    Format                      : UTF-8
    Codec ID                    : S_TEXT/UTF8
    Codec ID/Info               : UTF-8 Plain Text
    Duration                    : 22 min 12 s
    Bit rate                    : 99 b/s
    Count of elements           : 670
    Stream size                 : 16.2 KiB (0%)
    Title                       : Español-SRT [CinemaniaHDD]
    Language                    : Spanish
    Default                     : No
    Forced                      : No

    Text #3
    ID                          : 6
    Format                      : PGS
    Muxing mode                 : zlib
    Codec ID                    : S_HDMV/PGS
    Codec ID/Info               : Picture based subtitle format used on BDs/HD-DVDs
    Duration                    : 22 min 3 s
    Bit rate                    : 60.2 kb/s
    Count of elements           : 1018
    Stream size                 : 9.50 MiB (0%)
    Title                       : Ingles-PGS [CinemaniaHDD]
    Language                    : English
    Default                     : No
    Forced                      : No

    Menu
    00:00:00.000                : Chapter 01
    00:02:30.900                : Chapter 02
    00:12:40.050                : Chapter 03
    00:21:09.476                : Chapter 04
    00:21:41.508                : Chapter 05
    00:22:21.757                : Chapter 06

  • Peso: 2.60 GiB Aprox C/U | 26.9 GiB Total

Sinopsis

Descargar Rick and Morty (2021) Temporada 05 REMUX 1080p Latino. La quinta temporada sigue al viejo científico Rick en sus locas y sorprendentes aventuras junto a su nieto Morty. Entre ellas, enfrentarse a un inédito némesis de Rick que amenazara la vida en la Tierra por lo que el científico tiene un plan retorcido. En otra de las aventuras, los Smith sospechan que están siendo perseguidos. Por ello, Rick crea unos señuelos para que en el momento que son atacados sean estos los que mueren. ¿O acabarán siendo los Smith reales?

Audio:
Español Latino Editado AC3 2.0 HMAX – Ingles DTS-HD 5.1 Bluray
Edicion Audio Latino: CinefiloCool Thanks!!🙂
Thanks Chief por El Source!!!
Disponible Solo para VIP!!

Ficha técnica

Video trailer de la película

Enlaces de descarga

Rip de Bluray

Descargar Rick and Morty (2021) Temporada 05 REMUX 1080p Latino


Aportes de DPeliculasHDmega la pass es:dpeliculashdmega.org Aportes de CinemaniaHD la pass es:cinemaniahdd.com

Películas relacionadas

descargar Rick and Morty (2021) Temporada 05 REMUX 1080p Latino Full 1080p 1080p gratis, Rick and Morty (2021) Temporada 05 REMUX 1080p Latino Full 1080p mega 1 link, Rick and Morty (2021) Temporada 05 REMUX 1080p Latino Full 1080p serie completa, descargar Rick and Morty (2021) Temporada 05 REMUX 1080p Latino Full 1080p gratis en mega.

Rick and Morty (2021) Temporada 05 REMUX 1080p Latino pelicula full hd, Rick and Morty (2021) Temporada 05 REMUX 1080p Latino mega latino, Rick and Morty (2021) Temporada 05 REMUX 1080p Latino 4k latino, Rick and Morty (2021) Temporada 05 REMUX 1080p Latino pelicula completa, Rick and Morty (2021) Temporada 05 REMUX 1080p Latino descargar gratis, descargar Rick and Morty (2021) Temporada 05 REMUX 1080p Latino pelicula latino, Rick and Morty (2021) Temporada 05 REMUX 1080p Latino 1 link mega, Rick and Morty (2021) Temporada 05 REMUX 1080p Latino 1 link google drive, Rick and Morty (2021) Temporada 05 REMUX 1080p Latino hd 1080p latino.
Comentarios 0