Rick and Morty (2017) Tercera Temporada REMUX 1080p Latino -CMHDD

18 vistas
1 estrella2 estrellas3 estrellas4 estrellas5 estrellas (Ninguna valoración todavía)
Cargando...

Información de Rick and Morty (2017) Tercera Temporada REMUX 1080p Latino -CMHDD

Datos de la película

  • Calidad: Full 1080p
  • Audio: Se especifica abajo de la Sinopsis
  • Subtitulos: Español Latino SRT
  • Resolución: 1920x1080p
  • Formato: MKV
  • Codec: H.264
  • Encoder: Dracarys
  • Mediainfo: Clic para Mostrar Datos Ver
  • Format                      : Matroska
    Format version              : Version 4
    File size                   : 1.91 GiB
    Duration                    : 23 min 22 s
    Overall bit rate mode       : Variable
    Overall bit rate            : 11.7 Mb/s
    Movie name                  : CinemaniaHDD.Net
    Encoded date                : UTC 2020-10-13 02:22:24
    Writing application         : mkvmerge v51.0.0 ('I Wish') 64-bit
    Writing library             : libebml v1.4.0 + libmatroska v1.6.2
    Attachments                 : CINEMANIAHD.png

    Video
    ID                          : 1
    Format                      : AVC
    Format/Info                 : Advanced Video Codec
    Format profile              : High@L4.1
    Format settings             : CABAC / 2 Ref Frames
    Format settings, CABAC      : Yes
    Format settings, Reference  : 2 frames
    Format settings, GOP        : M=1, N=5
    Codec ID                    : V_MPEG4/ISO/AVC
    Duration                    : 23 min 22 s
    Bit rate mode               : Variable
    Bit rate                    : 8 372 kb/s
    Maximum bit rate            : 36.2 Mb/s
    Width                       : 1 920 pixels
    Height                      : 1 080 pixels
    Display aspect ratio        : 16:9
    Frame rate mode             : Constant
    Frame rate                  : 23.976 (24000/1001) FPS
    Color space                 : YUV
    Chroma subsampling          : 4:2:0
    Bit depth                   : 8 bits
    Scan type                   : Progressive
    Bits/(Pixel*Frame)          : 0.168
    Stream size                 : 1.37 GiB (71%)
    Title                       : REMUX 1080p [CinemaniaHDD]
    Language                    : English
    Default                     : Yes
    Forced                      : No

    Audio #1
    ID                          : 2
    Format                      : AC-3
    Format/Info                 : Audio Coding 3
    Commercial name             : Dolby Digital
    Codec ID                    : A_AC3
    Duration                    : 23 min 22 s
    Bit rate mode               : Constant
    Bit rate                    : 256 kb/s
    Channel(s)                  : 2 channels
    Channel layout              : L R
    Sampling rate               : 48.0 kHz
    Frame rate                  : 31.250 FPS (1536 SPF)
    Compression mode            : Lossy
    Stream size                 : 42.8 MiB (2%)
    Title                       : Español Latino [CinemaniaHDD]
    Language                    : Spanish
    Service kind                : Complete Main
    Default                     : Yes
    Forced                      : No

    Audio #2
    ID                          : 3
    Format                      : MLP FBA
    Format/Info                 : Meridian Lossless Packing FBA
    Commercial name             : Dolby TrueHD
    Codec ID                    : A_TRUEHD
    Duration                    : 23 min 22 s
    Bit rate mode               : Variable
    Bit rate                    : 2 992 kb/s
    Maximum bit rate            : 4 359 kb/s
    Channel(s)                  : 6 channels
    Channel layout              : L R C LFE Ls Rs
    Sampling rate               : 48.0 kHz
    Frame rate                  : 1 200.000 FPS (40 SPF)
    Compression mode            : Lossless
    Stream size                 : 500 MiB (26%)
    Title                       : Ingles [CinemaniaHDD]
    Language                    : English
    Default                     : No
    Forced                      : No

    Text #1
    ID                          : 4
    Format                      : UTF-8
    Codec ID                    : S_TEXT/UTF8
    Codec ID/Info               : UTF-8 Plain Text
    Duration                    : 23 min 8 s
    Bit rate                    : 100 b/s
    Count of elements           : 484
    Stream size                 : 17.0 KiB (0%)
    Title                       : Español-SRT [CinemaniaHDD]
    Language                    : Spanish
    Default                     : No
    Forced                      : No

    Text #2
    ID                          : 5
    Format                      : PGS
    Muxing mode                 : zlib
    Codec ID                    : S_HDMV/PGS
    Codec ID/Info               : Picture based subtitle format used on BDs/HD-DVDs
    Duration                    : 23 min 12 s
    Bit rate                    : 103 kb/s
    Count of elements           : 1282
    Stream size                 : 17.1 MiB (1%)
    Title                       : Ingles [CinemaniaHDD]
    Language                    : English
    Default                     : No
    Forced                      : No

    Menu
    00:00:00.000                : en:Chapter 1
    00:01:23.000                : en:Chapter 2
    00:01:54.823                : en:Chapter 3
    00:09:55.887                : en:Chapter 4
    00:22:13.874                : en:Chapter 5

  • Peso: 17.1 GiB Total

Sinopsis

En la tercera temporada, Summer y Morty viajan a otra dimensión para encontrar a Rick donde hay numerosos Ricks. Al volver a su dimensión, Rick no puede parar y sigue con sus aventuras desde convertirse en un pepinillo hasta llegar a enfrentarse al presidente. Además, Rick y Morty viajan a Atlantis para descansar un tiempo pero acaban en otra aventura loca. En esta tercera temporada, muchos de los capítulos se centran en resolver problemas personales del pasado y, como es normal en esta loca familia, acaban en desastre.

 

Latino: AC3 2.0 NETFLIX – Ingles: TrueHD 5.1 BluRay

Cada audio Fue editado para la versión BluRay Por: CinefiloCool

Ficha técnica

Video trailer de la película

Enlaces de descarga

Rip de Bluray

Descargar Rick and Morty (2017) Tercera Temporada REMUX 1080p Latino -CMHDD


Aportes de DPeliculasHDmega la pass es:dpeliculashdmega.org Aportes de CinemaniaHD la pass es:cinemaniahdd.com

Películas relacionadas

  • Bulletproof 2 (2020) WEB-DL 1080p Latino

    Bulletproof 2 (2020) WEB-DL 1080p Latino

    2020
    Bulletproof 2 (2020) WEB-DL 1080p Latino

    5.0 1h 38m 2020

    El agente especial Jack Carter asume de mala gana la identidad del criminal Archie Moses para derrotar...

    Director: Don Michael Paul

    Género: Acción

    Actores: Tuks Tad Lungu

  • Espejos Siniestros (2008) REMUX 1080p Latino

    Espejos Siniestros (2008) REMUX 1080p Latino

    2008
    Espejos Siniestros (2008) REMUX 1080p Latino

    5.0 1h 52m 2008

    Descargar Espejos Siniestros (2008) REMUX 1080p Latino. Ben Carson (Kiefer Sutherland) ha tenido días...

    Director: Alexandre Aja

    Género: Drama

    Actores: William Meredith

  • Donnie Darko (2001) REMUX 1080p Latino

    Donnie Darko (2001) REMUX 1080p Latino

    2001
    Donnie Darko (2001) REMUX 1080p Latino

    5.0 1h 53m 2001

    Descargar Donnie Darko (2001) REMUX 1080p Latino. Donnie es un chico americano dotado de gran inteligencia...

    Director: Richard Kelly

    Género: Drama

    Actores: Tom Tangen

Comentarios 0