Rick and Morty (2015) Segunda Temporada REMUX 1080p Latino -CMHDD

18 vistas
1 estrella2 estrellas3 estrellas4 estrellas5 estrellas (Ninguna valoración todavía)
Cargando...

Información de Rick and Morty (2015) Segunda Temporada REMUX 1080p Latino -CMHDD

Datos de la película

  • Calidad: Full 1080p
  • Audio: Se especifica abajo de la Sinopsis
  • Subtitulos: Español Latino SRT
  • Resolución: 1920x1080p
  • Formato: MKV
  • Codec: H.264
  • Encoder: Dracarys
  • Mediainfo: Clic para Mostrar Datos Ver
  • Format                      : Matroska
    Format version              : Version 4
    File size                   : 3.17 GiB
    Duration                    : 22 min 51 s
    Overall bit rate mode       : Variable
    Overall bit rate            : 19.8 Mb/s
    Movie name                  : CinemaniaHDD.Net
    Encoded date                : UTC 2020-10-09 05:23:57
    Writing application         : mkvmerge v51.0.0 ('I Wish') 64-bit
    Writing library             : libebml v1.4.0 + libmatroska v1.6.2
    Attachments                 : CINEMANIAHD.png

    Video
    ID                          : 1
    Format                      : VC-1
    Format profile              : Advanced@L3
    Codec ID                    : V_MS/VFW/FOURCC / WVC1
    Codec ID/Hint               : Microsoft
    Duration                    : 22 min 51 s
    Bit rate                    : 15.2 Mb/s
    Width                       : 1 920 pixels
    Height                      : 1 080 pixels
    Display aspect ratio        : 16:9
    Frame rate mode             : Constant
    Frame rate                  : 23.976 (23976/1000) FPS
    Original frame rate         : 23.976 (24000/1001) FPS
    Color space                 : YUV
    Chroma subsampling          : 4:2:0
    Bit depth                   : 8 bits
    Scan type                   : Progressive
    Compression mode            : Lossy
    Bits/(Pixel*Frame)          : 0.306
    Stream size                 : 2.43 GiB (77%)
    Title                       : REMUX 1080p [CinemaniaHDD]
    Default                     : Yes
    Forced                      : No

    Audio #1
    ID                          : 2
    Format                      : AC-3
    Format/Info                 : Audio Coding 3
    Commercial name             : Dolby Digital
    Codec ID                    : A_AC3
    Duration                    : 22 min 51 s
    Bit rate mode               : Constant
    Bit rate                    : 256 kb/s
    Channel(s)                  : 2 channels
    Channel layout              : L R
    Sampling rate               : 48.0 kHz
    Frame rate                  : 31.250 FPS (1536 SPF)
    Compression mode            : Lossy
    Delay relative to video     : -42 ms
    Stream size                 : 41.9 MiB (1%)
    Title                       : Español Latino [CinemaniaHDD]
    Language                    : Spanish
    Service kind                : Complete Main
    Default                     : Yes
    Forced                      : No

    Audio #2
    ID                          : 3
    Format                      : MLP FBA
    Format/Info                 : Meridian Lossless Packing FBA
    Commercial name             : Dolby TrueHD
    Codec ID                    : A_TRUEHD
    Duration                    : 22 min 51 s
    Bit rate mode               : Variable
    Bit rate                    : 4 248 kb/s
    Maximum bit rate            : 6 396 kb/s
    Channel(s)                  : 6 channels
    Channel layout              : L R C LFE Ls Rs
    Sampling rate               : 48.0 kHz
    Frame rate                  : 1 200.000 FPS (40 SPF)
    Compression mode            : Lossless
    Delay relative to video     : -42 ms
    Stream size                 : 695 MiB (21%)
    Title                       : Ingles [CinemaniaHDD]
    Language                    : English
    Default                     : No
    Forced                      : No

    Text #1
    ID                          : 4
    Format                      : UTF-8
    Codec ID                    : S_TEXT/UTF8
    Codec ID/Info               : UTF-8 Plain Text
    Duration                    : 22 min 33 s
    Bit rate                    : 128 b/s
    Count of elements           : 545
    Stream size                 : 21.2 KiB (0%)
    Title                       : Español-SRT [CinemaniaHDD]
    Language                    : Spanish
    Default                     : No
    Forced                      : No

    Text #2
    ID                          : 5
    Format                      : PGS
    Muxing mode                 : zlib
    Codec ID                    : S_HDMV/PGS
    Codec ID/Info               : Picture based subtitle format used on BDs/HD-DVDs
    Duration                    : 22 min 37 s
    Bit rate                    : 79.9 kb/s
    Count of elements           : 1336
    Stream size                 : 12.9 MiB (0%)
    Title                       : Ingles [CinemaniaHDD]
    Language                    : English
    Default                     : No
    Forced                      : No
     

  • Peso: 31.9 GiB Total

Sinopsis

Rick, Morty y Summer reparan la casa con el tiempo congelado. Depués de seis meses así, el científico decide descongelarlo. Esta descongelación del tiempo, provoca que acaben en una dimensión paralela en descomposición. En esta temporada, se enfrentan a parásitos alienígenas, Jerrys alternativos y hasta una dimensión que posiblemente no exista. Además, toda la familia irá a diferentes planetas donde los ciudadanos pueden infringir las normas o asisten a una desafortunada boda

 

Latino: AC3 2.0 NETFLIX – Ingles: TrueHD 5.1 BluRay

Cada audio Fue editado para la versión BluRay Por: CinefiloCool

Ficha técnica

Video trailer de la película

Enlaces de descarga

Rip de Bluray

Descargar Rick and Morty (2015) Segunda Temporada REMUX 1080p Latino -CMHDD


Aportes de DPeliculasHDmega la pass es:dpeliculashdmega.org Aportes de CinemaniaHD la pass es:cinemaniahdd.com

Películas relacionadas

Comentarios 0