×

¿Problemas para descargar con Mozilla, EDGE? Deshabilita la opción "Abrir vinculos en una pestaña nueva" tal como lo muestra ésta imagen.

Richie Rich (1994) WEB-DL 1080p Latino

221 vistas

Información de Richie Rich (1994) WEB-DL 1080p Latino

Datos de la película

  • Calidad: 1080p
  • Audio: Español Latino AC3 2.0 WEB-DL - Ingles AC3 5.1 WEB-DL
  • Subtitulos: Español Latino SRT- FORZADOS SRT
  • Resolución: 1920x1080
  • Formato: MKV
  • Codec: H.264
  • Encoder: cinemaniahdd
  • Mediainfo: Clic para Mostrar Datos Ver
  • Richie Rich (1994) WEB-DL 1080p Latino [CNMNHDD].mkv
    Format                      : Matroska
    Format version              : Version 4
    File size                   : 8.55 GiB
    Duration                    : 1 h 34 min
    Overall bit rate mode       : Variable
    Overall bit rate            : 13.0 Mb/s
    Movie name                  : Richie Rich (1994) - CinemaniaHDD.Net
    Encoded date                : UTC 2021-07-04 00:40:43
    Writing application         : mkvmerge v56.1.0 ('My Friend') 64-bit
    Writing library             : libebml v1.4.2 + libmatroska v1.6.4

    Video
    ID                          : 1
    Format                      : AVC
    Format/Info                 : Advanced Video Codec
    Format profile              : High@L4
    Format settings             : CABAC / 4 Ref Frames
    Format settings, CABAC      : Yes
    Format settings, Reference  : 4 frames
    Codec ID                    : V_MPEG4/ISO/AVC
    Duration                    : 1 h 34 min
    Bit rate mode               : Variable
    Bit rate                    : 12.2 Mb/s
    Maximum bit rate            : 15.0 Mb/s
    Width                       : 1 920 pixels
    Height                      : 1 080 pixels
    Display aspect ratio        : 16:9
    Frame rate mode             : Constant
    Frame rate                  : 23.976 (24000/1001) FPS
    Color space                 : YUV
    Chroma subsampling          : 4:2:0
    Bit depth                   : 8 bits
    Scan type                   : Progressive
    Bits/(Pixel*Frame)          : 0.245
    Stream size                 : 8.04 GiB (94%)
    Title                       : BryanTV
    Writing library             : x264 core 148 r2623 d5b2374
    Encoding settings           : cabac=1 / ref=4 / deblock=1:-1:-1 / analyse=0x3:0x133 / me=umh / subme=9 / psy=1 / psy_rd=1.00:0.15 / mixed_ref=1 / me_range=24 / chroma_me=1 / trellis=2 / 8x8dct=1 / cqm=0 / deadzone=21,11 / fast_pskip=1 / chroma_qp_offset=-3 / threads=34 / lookahead_threads=5 / sliced_threads=0 / nr=150 / decimate=1 / interlaced=0 / bluray_compat=0 / constrained_intra=0 / bframes=8 / b_pyramid=2 / b_adapt=2 / b_bias=0 / direct=3 / weightb=1 / open_gop=0 / weightp=2 / keyint=120 / keyint_min=61 / scenecut=0 / intra_refresh=0 / rc_lookahead=120 / rc=crf / mbtree=1 / crf=18.0 / qcomp=0.60 / qpmin=0 / qpmax=69 / qpstep=4 / vbv_maxrate=15000 / vbv_bufsize=31250 / crf_max=0.0 / nal_hrd=vbr / filler=0 / ip_ratio=1.40 / aq=3:1.00
    Language                    : English
    Default                     : Yes
    Forced                      : No
    Color range                 : Limited
    Color primaries             : BT.709
    Transfer characteristics    : BT.709
    Matrix coefficients         : BT.709

    Audio #1
    ID                          : 2
    Format                      : AC-3
    Format/Info                 : Audio Coding 3
    Commercial name             : Dolby Digital
    Codec ID                    : A_AC3
    Duration                    : 1 h 34 min
    Bit rate mode               : Constant
    Bit rate                    : 384 kb/s
    Channel(s)                  : 2 channels
    Channel layout              : L R
    Sampling rate               : 48.0 kHz
    Frame rate                  : 31.250 FPS (1536 SPF)
    Compression mode            : Lossy
    Stream size                 : 259 MiB (3%)
    Title                       : Español latino [CinemaniaHDD]
    Language                    : Spanish
    Service kind                : Complete Main
    Default                     : Yes
    Forced                      : No

    Audio #2
    ID                          : 3
    Format                      : AC-3
    Format/Info                 : Audio Coding 3
    Commercial name             : Dolby Digital
    Codec ID                    : A_AC3
    Duration                    : 1 h 34 min
    Bit rate mode               : Constant
    Bit rate                    : 384 kb/s
    Channel(s)                  : 6 channels
    Channel layout              : L R C LFE Ls Rs
    Sampling rate               : 48.0 kHz
    Frame rate                  : 31.250 FPS (1536 SPF)
    Compression mode            : Lossy
    Stream size                 : 260 MiB (3%)
    Title                       : Inglés [CinemaniaHDD]
    Language                    : English
    Service kind                : Complete Main
    Default                     : No
    Forced                      : No

    Text #1
    ID                          : 4
    Format                      : UTF-8
    Codec ID                    : S_TEXT/UTF8
    Codec ID/Info               : UTF-8 Plain Text
    Duration                    : 57 min 26 s
    Bit rate                    : 1 b/s
    Count of elements           : 18
    Stream size                 : 506 Bytes (0%)
    Title                       : Forzados [CinemaniaHDD]
    Language                    : Spanish
    Default                     : Yes
    Forced                      : Yes

    Text #2
    ID                          : 5
    Format                      : UTF-8
    Codec ID                    : S_TEXT/UTF8
    Codec ID/Info               : UTF-8 Plain Text
    Duration                    : 1 h 33 min
    Bit rate                    : 66 b/s
    Count of elements           : 1227
    Stream size                 : 45.3 KiB (0%)
    Title                       : Español latino [CinemaniaHDD]
    Language                    : Spanish
    Default                     : No
    Forced                      : No

    Text #3
    ID                          : 6
    Format                      : UTF-8
    Codec ID                    : S_TEXT/UTF8
    Codec ID/Info               : UTF-8 Plain Text
    Duration                    : 1 h 33 min
    Bit rate                    : 64 b/s
    Count of elements           : 1196
    Stream size                 : 44.4 KiB (0%)
    Title                       : Inglés [CC] [CinemaniaHDD]
    Language                    : English
    Default                     : No
    Forced                      : No

    Menu
    00:00:00.000                : 1
    00:04:43.408                : 2
    00:09:20.268                : 3
    00:12:19.738                : 4
    00:15:05.737                : 5
    00:16:43.585                : 6
    00:21:12.437                : 7
    00:24:24.670                : 8
    00:27:18.385                : 9
    00:31:15.622                : 10
    00:35:02.223                : 11
    00:38:09.702                : 12
    00:40:42.271                : 13
    00:44:47.641                : 14
    00:48:37.162                : 15
    00:52:31.229                : 16
    00:55:38.958                : 17
    00:58:03.352                : 18
    01:03:28.385                : 19
    01:08:26.933                : 20
    01:09:00.675                : 21
    01:11:37.707                : 22
    01:14:30.713                : 23
    01:16:38.423                : 24
    01:19:48.488                : 25
    01:22:13.216                : 26
    01:25:10.852                : 27
    01:28:59.246                : 28
    01:30:33.132                : 29

     

  • Peso: 8.55 GiB

Sinopsis

Richie Rich es el niño más rico del mundo; tiene su propio parque de atracciones, un Burguer en su casa y su profesora de gimnasia es la mismísima Claudia Schiffer. Richie tiene además el amor de sus padres, pero no es feliz; echa de menos jugar al béisbol en la calle con los chicos del barrio. Cuando sus padres desaparecen en el Triángulo de las Bermudas, el muchacho sospecha que detrás de la desaparición se encuentra Laurence Van Dogh, un ejecutivo de Industrias Richie que pretende hacerse con la compañía asesinando a sus padres. Sin embargo, Richie y su nueva pandilla de chiflados amiguetes no están dispuestos a rendirse a la primera… son capaces de cualquier travesura y la fuerza de la amistad es muy poderosa. Con su ayuda intentará liberar a sus padres y salvar la compañía

Ficha técnica

Video trailer de la película

Enlaces de descarga

Rip de Bluray

Descargar Richie Rich (1994) WEB-DL 1080p Latino




Aportes de DPeliculasHDmega la pass es:dpeliculashdmega.org Aportes de CinemaniaHD la pass es:cinemaniahdd.com
Guardado en : Comedia , Familia

Películas relacionadas

  • Un mundo extraño (2022) HD 1080p Latino

    Un mundo extraño (2022) HD 1080p Latino

    2022
    Un mundo extraño (2022) HD 1080p Latino

    1h 42m 2022

    Descargar Un mundo extraño (2022) HD 1080p Latino. Los Clades son una familia conocida en todo el mundo,...

    Director: Thai Bettistea

    Género: Animación

    Actores: Reed Buck

  • Un mundo extraño (2022) REMUX 1080p Latino

    Un mundo extraño (2022) REMUX 1080p Latino

    2022
    Un mundo extraño (2022) REMUX 1080p Latino

    1h 42m 2022

    Descargar Un mundo extraño (2022) REMUX 1080p. Un viaje a una tierra inexplorada y traicionera en la...

    Director: Thai Bettistea

    Género: Animación

    Actores: Reed Buck

  • Espiritu Libre (2023) NF WEB-DL 1080p Latino

    Espiritu Libre (2023) NF WEB-DL 1080p Latino

    2023
    Espiritu Libre (2023) NF WEB-DL 1080p Latino

    1h 49m 2023

    Descargar Espiritu Libre (2023) NF WEB-DL 1080p Latino. La película se basa en la increíble historia...

    Director: Sarah Spillane

    Género: Aventura

    Actores: Vivien Turner

  • Corazón de tinta (2008) Full HD 1080p Latino

    Corazón de tinta (2008) Full HD 1080p Latino

    2008
    Corazón de tinta (2008) Full HD 1080p Latino

    1h 46m 2008

    Descargar Corazón de tinta (2008) Full HD 1080p Latino. Mortimer “Mo” Folchart y su hija de 12 años,...

    Director: Sharon Mansfield

    Género: Aventura

    Actores: Terry Cavanagh

descargar Richie Rich (1994) WEB-DL 1080p Latino 1080p 1080p gratis, Richie Rich (1994) WEB-DL 1080p Latino 1080p mega 1 link, Richie Rich (1994) WEB-DL 1080p Latino 1080p pelicula completa, descargar Richie Rich (1994) WEB-DL 1080p Latino 1080p gratis en mega.

Richie Rich (1994) WEB-DL 1080p Latino pelicula full hd, Richie Rich (1994) WEB-DL 1080p Latino mega latino, Richie Rich (1994) WEB-DL 1080p Latino 4k latino, Richie Rich (1994) WEB-DL 1080p Latino pelicula completa, Richie Rich (1994) WEB-DL 1080p Latino descargar gratis, descargar Richie Rich (1994) WEB-DL 1080p Latino pelicula latino, Richie Rich (1994) WEB-DL 1080p Latino 1 link mega, Richie Rich (1994) WEB-DL 1080p Latino 1 link google drive, Richie Rich (1994) WEB-DL 1080p Latino hd 1080p latino.
Comentarios 0