×

¿Problemas para descargar con Mozilla, EDGE? Deshabilita la opción "Abrir vinculos en una pestaña nueva" tal como lo muestra ésta imagen.

Rey Richard: Una Familia Ganadora (2021) HD 1080p Latino

392 vistas

Información de Rey Richard: Una Familia Ganadora (2021) HD 1080p Latino

Datos de la película

  • Calidad: 1080p
  • Audio: Español Latino AC3 5.1 WEB-DL - Ingles AC3 5.1 BLURAY
  • Subtitulos: Español Latino SRT- FORZADOS SRT
  • Resolución: 1920x804p
  • Formato: MKV
  • Codec: H.264
  • Encoder: Melkor
  • Mediainfo: Clic para Mostrar Datos Ver
  • Rey Richard Una Familia Ganadora (2021) HD 1080p Latino.mkv
    Format                      : Matroska
    Format version              : Version 4
    File size                   : 4.88 GiB
    Duration                    : 2 h 24 min
    Overall bit rate            : 4 833 kb/s
    Movie name                  : King Richard (2021) CinemaniaHDD.Net
    Encoded date                : UTC 2022-01-31 02:07:54
    Writing application         : mkvmerge v56.1.0 ('My Friend') 64-bit
    Writing library             : libebml v1.4.2 + libmatroska v1.6.4
    Attachments                 : CINEMANIAHD.png

    Video
    ID                          : 1
    Format                      : AVC
    Format/Info                 : Advanced Video Codec
    Format profile              : High@L4.1
    Format settings             : CABAC / 5 Ref Frames
    Format settings, CABAC      : Yes
    Format settings, Reference  : 5 frames
    Codec ID                    : V_MPEG4/ISO/AVC
    Duration                    : 2 h 24 min
    Bit rate                    : 4 000 kb/s
    Width                       : 1 920 pixels
    Height                      : 804 pixels
    Display aspect ratio        : 2.40:1
    Frame rate mode             : Constant
    Frame rate                  : 23.976 (24000/1001) FPS
    Color space                 : YUV
    Chroma subsampling          : 4:2:0
    Bit depth                   : 8 bits
    Scan type                   : Progressive
    Bits/(Pixel*Frame)          : 0.108
    Stream size                 : 4.04 GiB (83%)
    Title                       : HD1080p [CinemaniaHDD]
    Writing library             : x264 core 163 r3059 b684ebe0
    Encoding settings           : cabac=1 / ref=5 / deblock=1:-1:-1 / analyse=0x3:0x133 / me=umh / subme=9 / psy=1 / psy_rd=1.00:0.15 / mixed_ref=1 / me_range=16 / chroma_me=1 / trellis=2 / 8x8dct=1 / cqm=0 / deadzone=21,11 / fast_pskip=1 / chroma_qp_offset=-3 / threads=24 / lookahead_threads=2 / sliced_threads=0 / nr=0 / decimate=1 / interlaced=0 / bluray_compat=0 / constrained_intra=0 / bframes=3 / b_pyramid=2 / b_adapt=2 / b_bias=0 / direct=3 / weightb=1 / open_gop=0 / weightp=2 / keyint=240 / keyint_min=24 / scenecut=40 / intra_refresh=0 / rc_lookahead=60 / rc=2pass / mbtree=1 / bitrate=4000 / ratetol=1.0 / qcomp=0.60 / qpmin=0 / qpmax=69 / qpstep=4 / cplxblur=20.0 / qblur=0.5 / vbv_maxrate=62500 / vbv_bufsize=78125 / nal_hrd=none / filler=0 / ip_ratio=1.40 / aq=1:1.00
    Default                     : Yes
    Forced                      : Yes
    Color range                 : Limited
    Color primaries             : BT.709
    Transfer characteristics    : BT.709
    Matrix coefficients         : BT.709

    Audio #1
    ID                          : 2
    Format                      : AC-3
    Format/Info                 : Audio Coding 3
    Commercial name             : Dolby Digital
    Codec ID                    : A_AC3
    Duration                    : 2 h 24 min
    Bit rate mode               : Constant
    Bit rate                    : 384 kb/s
    Channel(s)                  : 6 channels
    Channel layout              : L R C LFE Ls Rs
    Sampling rate               : 48.0 kHz
    Frame rate                  : 31.250 FPS (1536 SPF)
    Compression mode            : Lossy
    Delay relative to video     : -3 ms
    Stream size                 : 397 MiB (8%)
    Title                       : Español Latino [CinemaniaHDD]
    Language                    : Spanish
    Service kind                : Complete Main
    Default                     : Yes
    Forced                      : Yes

    Audio #2
    ID                          : 3
    Format                      : AC-3
    Format/Info                 : Audio Coding 3
    Commercial name             : Dolby Digital
    Codec ID                    : A_AC3
    Duration                    : 2 h 24 min
    Bit rate mode               : Constant
    Bit rate                    : 448 kb/s
    Channel(s)                  : 6 channels
    Channel layout              : L R C LFE Ls Rs
    Sampling rate               : 48.0 kHz
    Frame rate                  : 31.250 FPS (1536 SPF)
    Compression mode            : Lossy
    Delay relative to video     : -5 ms
    Stream size                 : 464 MiB (9%)
    Title                       : Ingles [CinemaniaHDD]
    Language                    : English
    Service kind                : Complete Main
    Default                     : No
    Forced                      : No

    Text #1
    ID                          : 4
    Format                      : UTF-8
    Codec ID                    : S_TEXT/UTF8
    Codec ID/Info               : UTF-8 Plain Text
    Duration                    : 2 h 17 min
    Bit rate                    : 3 b/s
    Count of elements           : 86
    Stream size                 : 3.83 KiB (0%)
    Title                       : Forzados-SRT [CinemaniaHDD]
    Language                    : Spanish
    Default                     : Yes
    Forced                      : Yes

    Text #2
    ID                          : 5
    Format                      : UTF-8
    Codec ID                    : S_TEXT/UTF8
    Codec ID/Info               : UTF-8 Plain Text
    Duration                    : 2 h 23 min
    Bit rate                    : 71 b/s
    Count of elements           : 2053
    Stream size                 : 75.0 KiB (0%)
    Title                       : Español-SRT [CinemaniaHDD]
    Language                    : Spanish
    Default                     : No
    Forced                      : No

    Text #3
    ID                          : 6
    Format                      : UTF-8
    Codec ID                    : S_TEXT/UTF8
    Codec ID/Info               : UTF-8 Plain Text
    Duration                    : 2 h 18 min
    Bit rate                    : 91 b/s
    Count of elements           : 2686
    Stream size                 : 93.1 KiB (0%)
    Title                       : Ingles-SRT [CinemaniaHDD]
    Language                    : English
    Default                     : No
    Forced                      : No

    Menu
    00:00:00.000                : Chapter 01
    00:10:36.886                : Chapter 02
    00:20:04.370                : Chapter 03
    00:28:38.717                : Chapter 04
    00:40:24.297                : Chapter 05
    00:50:42.665                : Chapter 06
    00:58:19.913                : Chapter 07
    01:10:56.502                : Chapter 08
    01:19:14.667                : Chapter 09
    01:29:03.380                : Chapter 10
    01:40:26.187                : Chapter 11
    01:50:23.492                : Chapter 12
    01:59:11.186                : Chapter 13
    02:11:52.780                : Chapter 14
    02:17:17.604                : Chapter 15
    Rey Richard Una Familia Ganadora (2021) BDRip 1080p Latino[CMHDD].mkv
    File size                   : 15.5 GiB
    Duration                    : 2 h 24 min
    Movie name                  : King Richard (2021) CinemaniaHDD.Net
    Video
    Format                      : AVC x264 High@L4.1
    Bit rate                    : 14.4 Mb/s
    Width                       : 1 920 pixels
    Height                      : 804 pixels
    Frame rate                  : 23.976 (24000/1001) FPS
    Audio #1
    Format                      : AC-3
    Bit rate                    : 384 kb/s
    Channel(s)                  : 6 channels
    Sampling rate               : 48.0 kHz
    Title                       : Español Latino [CinemaniaHDD]
    Language                    : Spanish
    Audio #2
    Format                      : AC-3
    Bit rate                    : 640 kb/s
    Channel(s)                  : 6 channels
    Sampling rate               : 48.0 kHz
    Title                       : Ingles [CinemaniaHDD]
    Language                   : English
    Subtitulos: Forzados-SRT, Español-SRT, Ingles-SRT

  • Peso: 4.88 GiB | 15.5 GiB

Sinopsis

Descargar Rey Richard: Una Familia Ganadora (2021) HD 1080p Latino. Biopic sobre Richard Williams, un padre inasequible al desaliento que ayudó a criar a dos de las deportistas más extraordinarias de todos los tiempos, dos atletas que acabarían cambiando para siempre el deporte del tenis. Richard tenía una visión muy clara del futuro de sus hijas y sirviéndose de métodos poco convencionales, elaboró un plan que llevaría a Venus y Serena Williams de las calles de Compton, California, al olimpo de deporte convirtiéndolas en iconos legendarios.

Nota: Version Ligera & Pesada!!!

Ficha técnica

Video trailer de la película

Enlaces de descarga

Rip de Bluray

Descargar Rey Richard: Una Familia Ganadora (2021) HD 1080p Latino




Aportes de DPeliculasHDmega la pass es:dpeliculashdmega.org Aportes de CinemaniaHD la pass es:cinemaniahdd.com
Guardado en : Drama , HD 1080p , Historia

Películas relacionadas

descargar Rey Richard: Una Familia Ganadora (2021) HD 1080p Latino 1080p 1080p gratis, Rey Richard: Una Familia Ganadora (2021) HD 1080p Latino 1080p mega 1 link, Rey Richard: Una Familia Ganadora (2021) HD 1080p Latino 1080p pelicula completa, descargar Rey Richard: Una Familia Ganadora (2021) HD 1080p Latino 1080p gratis en mega.

Rey Richard: Una Familia Ganadora (2021) HD 1080p Latino pelicula full hd, Rey Richard: Una Familia Ganadora (2021) HD 1080p Latino mega latino, Rey Richard: Una Familia Ganadora (2021) HD 1080p Latino 4k latino, Rey Richard: Una Familia Ganadora (2021) HD 1080p Latino pelicula completa, Rey Richard: Una Familia Ganadora (2021) HD 1080p Latino descargar gratis, descargar Rey Richard: Una Familia Ganadora (2021) HD 1080p Latino pelicula latino, Rey Richard: Una Familia Ganadora (2021) HD 1080p Latino 1 link mega, Rey Richard: Una Familia Ganadora (2021) HD 1080p Latino 1 link google drive, Rey Richard: Una Familia Ganadora (2021) HD 1080p Latino hd 1080p latino.
Comentarios 0