×

¿Problemas para descargar con Mozilla, EDGE? Deshabilita la opción "Abrir vinculos en una pestaña nueva" tal como lo muestra ésta imagen.

Revolutionary Road (2008) REMUX 1080p Latino – CMHDD

142 vistas

Información de Revolutionary Road (2008) REMUX 1080p Latino – CMHDD

Datos de la película

  • Calidad: Full 1080p
  • Audio: Se especifica abajo de la Sinopsis
  • Subtitulos: Español Latino PGS
  • Resolución: 1920x1080p
  • Formato: MKV
  • Codec: H.264
  • Encoder: Dracarys
  • Mediainfo: Clic para Mostrar Datos Ver
  • Format                      : Matroska
    Format version              : Version 4
    File size                   : 25.0 GiB
    Duration                    : 1 h 59 min
    Overall bit rate mode       : Variable
    Overall bit rate            : 29.9 Mb/s
    Movie name                  : Revolutionary Road (2008) REMUX 1080p Latino - CMHDD
    Encoded date                : UTC 2021-09-15 03:23:00
    Writing application         : mkvmerge v17.0.0 ('Be Ur Friend') 64-bit
    Writing library             : libebml v1.3.5 + libmatroska v1.4.8

    Video
    ID                          : 1
    Format                      : AVC
    Format/Info                 : Advanced Video Codec
    Format profile              : High@L4.1
    Format settings             : CABAC / 4 Ref Frames
    Format settings, CABAC      : Yes
    Format settings, Reference  : 4 frames
    Codec ID                    : V_MPEG4/ISO/AVC
    Duration                    : 1 h 59 min
    Bit rate mode               : Variable
    Bit rate                    : 26.6 Mb/s
    Maximum bit rate            : 35.6 Mb/s
    Width                       : 1 920 pixels
    Height                      : 1 080 pixels
    Display aspect ratio        : 16:9
    Frame rate mode             : Constant
    Frame rate                  : 23.976 (24000/1001) FPS
    Color space                 : YUV
    Chroma subsampling          : 4:2:0
    Bit depth                   : 8 bits
    Scan type                   : Progressive
    Bits/(Pixel*Frame)          : 0.536
    Stream size                 : 22.2 GiB (89%)
    Default                     : Yes
    Forced                      : No
    Color range                 : Limited
    Color primaries             : BT.709
    Transfer characteristics    : BT.709
    Matrix coefficients         : BT.709

    Audio #1
    ID                          : 2
    Format                      : MLP FBA
    Format/Info                 : Meridian Lossless Packing FBA
    Commercial name             : Dolby TrueHD
    Codec ID                    : A_TRUEHD
    Duration                    : 1 h 59 min
    Bit rate mode               : Variable
    Bit rate                    : 2 911 kb/s
    Maximum bit rate            : 4 335 kb/s
    Channel(s)                  : 6 channels
    Channel layout              : L R C LFE Ls Rs
    Sampling rate               : 48.0 kHz
    Frame rate                  : 1 200.000 FPS (40 SPF)
    Compression mode            : Lossless
    Stream size                 : 2.42 GiB (10%)
    Language                    : English
    Default                     : No
    Forced                      : No

    Audio #2
    ID                          : 3
    Format                      : AC-3
    Format/Info                 : Audio Coding 3
    Codec ID                    : A_AC3
    Duration                    : 1 h 59 min
    Bit rate                    : 384 kb/s
    Channel(s)                  : 6 channels
    Sampling rate               : 48.0 kHz
    Frame rate                  : 31.250 FPS (1536 SPF)
    Compression mode            : Lossy
    Stream size                 : 329 MiB (1%)
    Language                    : Spanish
    Default                     : Yes
    Forced                      : No

    Text
    ID                          : 4
    Format                      : PGS
    Muxing mode                 : zlib
    Codec ID                    : S_HDMV/PGS
    Codec ID/Info               : Picture based subtitle format used on BDs/HD-DVDs
    Duration                    : 1 h 57 min
    Bit rate                    : 30.4 kb/s
    Count of elements           : 2470
    Stream size                 : 25.5 MiB (0%)
    Language                    : Spanish
    Default                     : No
    Forced                      : No

    Menu
    00:00:00.000                : en:Chapter 1
    00:05:36.586                : en:Chapter 2
    00:09:56.178                : en:Chapter 3
    00:15:08.032                : en:Chapter 4
    00:21:59.443                : en:Chapter 5
    00:24:58.747                : en:Chapter 6
    00:31:27.468                : en:Chapter 7
    00:35:29.418                : en:Chapter 8
    00:41:14.930                : en:Chapter 9
    00:44:38.425                : en:Chapter 10
    00:52:01.701                : en:Chapter 11
    00:57:16.808                : en:Chapter 12
    01:00:02.223                : en:Chapter 13
    01:10:03.824                : en:Chapter 14
    01:19:00.235                : en:Chapter 15
    01:27:01.925                : en:Chapter 16
    01:34:18.361                : en:Chapter 17
    01:40:09.128                : en:Chapter 18
    01:48:47.479                : en:Chapter 19
    01:52:40.545                : en:Chapter 20

  • Peso: 25.0 GiB

Sinopsis

Años 50. Frank (Leonardo DiCaprio) y April (Kate Winslet) se conocen en una fiesta y se enamoran. Ella quiere ser actriz. Él sueña con viajar para huir de la rutina y experimentar emociones nuevas. Con el tiempo se convierten en un estable matrimonio con dos hijos que vive en las afueras de Connecticut, pero no son felices. Ambos se enfrentan a un difícil dilema: o luchar por los sueños e ideales que siempre han perseguido o conformarse con su gris y mediocre vida cotidiana.

 

Latino: AC3 5.1  –  Ingles: TrueHD 5.1

Ficha técnica

Video trailer de la película

Enlaces de descarga

Rip de Bluray

Descargar Revolutionary Road (2008) REMUX 1080p Latino – CMHDD


Aportes de DPeliculasHDmega la pass es:dpeliculashdmega.org Aportes de CinemaniaHD la pass es:cinemaniahdd.com
Guardado en : Drama , Romance

Películas relacionadas

descargar Revolutionary Road (2008) REMUX 1080p Latino – CMHDD Full 1080p 1080p gratis, Revolutionary Road (2008) REMUX 1080p Latino – CMHDD Full 1080p mega 1 link, Revolutionary Road (2008) REMUX 1080p Latino – CMHDD Full 1080p pelicula completa, descargar Revolutionary Road (2008) REMUX 1080p Latino – CMHDD Full 1080p gratis en mega.

Revolutionary Road (2008) REMUX 1080p Latino – CMHDD pelicula full hd, Revolutionary Road (2008) REMUX 1080p Latino – CMHDD mega latino, Revolutionary Road (2008) REMUX 1080p Latino – CMHDD 4k latino, Revolutionary Road (2008) REMUX 1080p Latino – CMHDD pelicula completa, Revolutionary Road (2008) REMUX 1080p Latino – CMHDD descargar gratis, descargar Revolutionary Road (2008) REMUX 1080p Latino – CMHDD pelicula latino, Revolutionary Road (2008) REMUX 1080p Latino – CMHDD 1 link mega, Revolutionary Road (2008) REMUX 1080p Latino – CMHDD 1 link google drive, Revolutionary Road (2008) REMUX 1080p Latino – CMHDD hd 1080p latino.
Comentarios 0