Revenant: el renacido (2015) [Open Matte] Full 1080p Latino

2.466 vistas
1 estrella2 estrellas3 estrellas4 estrellas5 estrellas (4 votos, promedio: 5,00 de 5)
Cargando…

Información de Revenant: el renacido (2015) [Open Matte] Full 1080p Latino

Datos de la película

  • Calidad: Full 1080p
  • Audio: Español Latino AC3 5.1 BLURAY - Ingles DTS 5.1 BLURAY
  • Subtitulos: Español Latino PGS - Ingles PGS
  • Resolución: 1920X1080p
  • Formato: MKV
  • Codec: H.264
  • Encoder: Dracarys
  • Mediainfo: Clic para Mostrar Datos Ver
  • Format                                   : Matroska
    Format version                           : Version 4 / Version 2
    File size                                : 8.74 GiB
    Duration                                 : 2 h 36 min
    Overall bit rate                         : 8 000 kb/s
    Movie name                               : CinemaniaHDD.com
    Encoded date                             : UTC 2018-01-28 20:16:27 / UTC 2018-01-28T02:13:02Z
    Writing application                      : mkvmerge v15.0.0 ('Duel with the Devil') 64-bit
    Writing library                          : libebml v1.3.5 + libmatroska v1.4.5 / Lavf57.7.2

    Video
    ID                                       : 1
    Format                                   : AVC
    Format/Info                              : Advanced Video Codec
    Format profile                           : High@L4.1
    Format settings                          : CABAC / 4 Ref Frames
    Format settings, CABAC                   : Yes
    Format settings, RefFrames               : 4 frames
    Codec ID                                 : V_MPEG4/ISO/AVC
    Duration                                 : 2 h 36 min
    Bit rate                                 : 5 884 kb/s
    Width                                    : 1 920 pixels
    Height                                   : 1 080 pixels
    Display aspect ratio                     : 16:9
    Frame rate mode                          : Constant
    Frame rate                               : 23.976 (24000/1001) FPS
    Color space                              : YUV
    Chroma subsampling                       : 4:2:0
    Bit depth                                : 8 bits
    Scan type                                : Progressive
    Bits/(Pixel*Frame)                       : 0.118
    Stream size                              : 6.43 GiB (74%)
    Title                                    : Revenant: el renacido (2015) [Open Matte] Full 1080p Latino
    Writing library                          : x264 core 148 r2708 86b7198
    Encoding settings                        : cabac=1 / ref=4 / deblock=1:0:0 / analyse=0x3:0x133 / me=esa / subme=10 / psy=1 / psy_rd=1.00:0.00 / mixed_ref=1 / me_range=24 / chroma_me=1 / trellis=2 / 8x8dct=1 / cqm=0 / deadzone=21,11 / fast_pskip=1 / chroma_qp_offset=-2 / threads=34 / lookahead_threads=5 / sliced_threads=0 / nr=0 / decimate=1 / interlaced=0 / bluray_compat=0 / constrained_intra=0 / bframes=8 / b_pyramid=2 / b_adapt=2 / b_bias=0 / direct=3 / weightb=1 / open_gop=0 / weightp=2 / keyint=240 / keyint_min=24 / scenecut=40 / intra_refresh=0 / rc_lookahead=60 / rc=crf / mbtree=1 / crf=20.0 / qcomp=0.60 / qpmin=0 / qpmax=69 / qpstep=4 / vbv_maxrate=62500 / vbv_bufsize=78125 / crf_max=0.0 / nal_hrd=none / filler=0 / ip_ratio=1.40 / aq=1:1.00
    Language                                 : English
    Default                                  : Yes
    Forced                                   : No
    Color range                              : Limited
    Color primaries                          : BT.709
    Transfer characteristics                 : BT.709
    Matrix coefficients                      : BT.709
    Statistics Tags Issue                    : mkvmerge v15.0.0 ('Duel with the Devil') 64-bit 2018-01-28 20:16:27 / mkvmerge v15.0.0 ('Duel with the Devil') 64-bit 2018-01-28 20:16:27 / UTC 2018-01-28T02:13:02Z
    FromStats_BitRate                        : 6034258
    FromStats_Duration                       : 02:36:29.380000000
    FromStats_FrameCount                     : 225120
    FromStats_StreamSize                     : 7082243808

    Audio #1
    ID                                       : 2
    Format                                   : AC-3
    Format/Info                              : Audio Coding 3
    Format settings, Endianness              : Big
    Codec ID                                 : A_AC3
    Duration                                 : 2 h 36 min
    Bit rate mode                            : Constant
    Bit rate                                 : 448 kb/s
    Channel(s)                               : 6 channels
    Channel positions                        : Front: L C R, Side: L R, LFE
    Sampling rate                            : 48.0 kHz
    Frame rate                               : 31.250 FPS (1536 SPF)
    Bit depth                                : 16 bits
    Compression mode                         : Lossy
    Delay relative to video                  : 7 s 0 ms
    Stream size                              : 501 MiB (6%)
    Language                                 : Spanish
    Service kind                             : Complete Main
    Default                                  : Yes
    Forced                                   : No
    Statistics Tags Issue                    : mkvmerge v15.0.0 ('Duel with the Devil') 64-bit 2018-01-28 20:16:27 / mkvmerge v15.0.0 ('Duel with the Devil') 64-bit 2018-01-28 20:16:27 / UTC 2018-01-28T02:13:02Z
    FromStats_BitRate                        : 448000
    FromStats_Duration                       : 02:36:21.376000000
    FromStats_FrameCount                     : 293168
    FromStats_StreamSize                     : 525357056

    Audio #2
    ID                                       : 3
    Format                                   : DTS
    Format/Info                              : Digital Theater Systems
    Mode                                     : 16
    Format settings, Endianness              : Big
    Codec ID                                 : A_DTS
    Duration                                 : 2 h 36 min
    Bit rate mode                            : Constant
    Bit rate                                 : 1 509 kb/s
    Channel(s)                               : 6 channels
    Channel positions                        : Front: L C R, Side: L R, LFE
    Sampling rate                            : 48.0 kHz
    Frame rate                               : 93.750 FPS (512 SPF)
    Bit depth                                : 24 bits
    Compression mode                         : Lossy
    Stream size                              : 1.65 GiB (19%)
    Language                                 : English
    Default                                  : No
    Forced                                   : No
    Statistics Tags Issue                    : mkvmerge v15.0.0 ('Duel with the Devil') 64-bit 2018-01-28 20:16:27 / mkvmerge v15.0.0 ('Duel with the Devil') 64-bit 2018-01-28 20:16:27 / UTC 2018-01-28T02:13:02Z
    FromStats_BitRate                        : 1509000
    FromStats_Duration                       : 02:36:28.512000000
    FromStats_FrameCount                     : 880173
    FromStats_StreamSize                     : 1770908076

    Text #1
    ID                                       : 4
    Format                                   : UTF-8
    Codec ID                                 : S_TEXT/UTF8
    Codec ID/Info                            : UTF-8 Plain Text
    Title                                    : Forzados
    Language                                 : Spanish
    Default                                  : Yes
    Forced                                   : Yes
    Statistics Tags Issue                    : mkvmerge v15.0.0 ('Duel with the Devil') 64-bit 2018-01-28 20:16:27 / mkvmerge v15.0.0 ('Duel with the Devil') 64-bit 2018-01-28 20:16:27 / UTC 2018-01-28T02:13:02Z
    FromStats_BitRate                        : 3
    FromStats_Duration                       : 02:35:07.423000000
    FromStats_FrameCount                     : 144
    FromStats_StreamSize                     : 3845

    Text #2
    ID                                       : 5
    Format                                   : PGS
    Muxing mode                              : zlib
    Codec ID                                 : S_HDMV/PGS
    Codec ID/Info                            : Picture based subtitle format used on BDs/HD-DVDs
    Language                                 : English
    Default                                  : No
    Forced                                   : No
    Statistics Tags Issue                    : mkvmerge v15.0.0 ('Duel with the Devil') 64-bit 2018-01-28 20:16:27 / mkvmerge v15.0.0 ('Duel with the Devil') 64-bit 2018-01-28 20:16:27 / UTC 2018-01-28T02:13:02Z
    FromStats_BitRate                        : 13210
    FromStats_Duration                       : 02:20:59.034000000
    FromStats_FrameCount                     : 1652
    FromStats_StreamSize                     : 13968492

    Text #3
    ID                                       : 6
    Format                                   : PGS
    Muxing mode                              : zlib
    Codec ID                                 : S_HDMV/PGS
    Codec ID/Info                            : Picture based subtitle format used on BDs/HD-DVDs
    Language                                 : Spanish
    Default                                  : No
    Forced                                   : No
    Statistics Tags Issue                    : mkvmerge v15.0.0 ('Duel with the Devil') 64-bit 2018-01-28 20:16:27 / mkvmerge v15.0.0 ('Duel with the Devil') 64-bit 2018-01-28 20:16:27 / UTC 2018-01-28T02:13:02Z
    FromStats_BitRate                        : 11969
    FromStats_Duration                       : 02:35:07.424000000
    FromStats_FrameCount                     : 1672
    FromStats_StreamSize                     : 13925780

    Menu
    00:00:00.000                             : :Chapter 1
    00:05:11.978                             : :Chapter 2
    00:08:05.443                             : :Chapter 3
    00:13:26.097                             : :Chapter 4
    00:21:18.736                             : :Chapter 5
    00:28:29.750                             : :Chapter 6
    00:37:16.818                             : :Chapter 7
    00:44:09.397                             : :Chapter 8
    00:48:24.985                             : :Chapter 9
    00:51:52.276                             : :Chapter 10
    00:57:01.001                             : :Chapter 11
    01:00:00.764                             : :Chapter 12
    01:03:42.736                             : :Chapter 13
    01:12:03.361                             : :Chapter 14
    01:16:47.103                             : :Chapter 15
    01:21:34.306                             : :Chapter 16
    01:28:43.068                             : :Chapter 17
    01:37:42.815                             : :Chapter 18
    01:48:58.198                             : :Chapter 19
    01:53:22.629                             : :Chapter 20
    01:59:19.736                             : :Chapter 21
    02:03:10.758                             : :Chapter 22
    02:16:00.027                             : :Chapter 23
    02:23:06.078                             : :Chapter 24

  • Peso: 8.74 GiB

Sinopsis

Durante una expedición en las tierras salvajes americanas, el legendario explorador Hugh Glass es brutalmente atacado por un oso y dado por muerto por los miembros de su propia partida de caza. En su cruzada por sobrevivir, Glass supera inimaginables tribulaciones, además de la traición de su confidente John Fitzgerald. Guiado por la pura determinación y el amor de su familia, Glass deberá superar un duro invierno mientras busca sin descanso un motivo para seguir adelante y encontrar la redención.

Ficha técnica

Video trailer de la película

Enlaces de descarga

Rip de Bluray

Descargar Revenant: el renacido (2015) [Open Matte] Full 1080p Latino




Aportes de DPeliculasHDmega la pass es:dpeliculashdmega.org Aportes de CinemaniaHD la pass es:cinemaniahdd.com

Películas relacionadas

  • La Monja (2018) Web-DL 1080p Latino

    2018
    La Monja (2018) Web-DL 1080p Latino

    5.0 1h 36m 2018

    Descargar La Monja (2018) Web-DL 1080p Latino, Mega, Google Drive. Cuando una joven monja se suicida...

    Director: Jody Blose

    Género: Misterio

    Actores: Tudor Munteanu

  • El Jefe de la Mafia: Gotti (2018) 1080p Latino

    2018
    El Jefe de la Mafia: Gotti (2018) 1080p Latino

    1.0 1h 50m 2018

    Descargar El Jefe de la Mafia: Gotti (2018) 1080p Latino, Mega, Google Drive. Biopic del famoso mafioso...

    Director: S. B. Weathersby

    Género: Crimen

    Actores: William DeMeo

  • El final del viaje (2018) 1080p Latino

    2018
    El final del viaje (2018) 1080p Latino

    1.0 1h 48m 2018

    Descargar El final del viaje (2018) 1080p Latino, Mega, Google Drive. Un grupo de soldados británicos...

    Director: Saul Dibb

    Género: Bélica

    Actores: Tom Sturridge

  • Mision: Imposible 2 (2000) Full 1080p Latino

    2000
    Mision: Imposible 2 (2000) Full 1080p Latino

    3.0 2h 3m 2000

    Descargar Mision: Imposible 2 (2000) Full 1080p Latino, Mega, Google Drive. El agente especial Ethan...

    Director: William H. Burton Jr.

    Género: Acción

    Actores: William Mapother

  • Mision: Imposible 2 (2000) 1080p Latino

    2000
    Mision: Imposible 2 (2000) 1080p Latino

    1.0 2h 3m 2000

    Descargar Mision: Imposible 2 (2000) 1080p Latino, Mega, Google Drive. El agente especial Ethan Hunt...

    Director: William H. Burton Jr.

    Género: Acción

    Actores: William Mapother

Comentarios 8
  • Lalovision - 31 enero, 2018

    ¿Que significa Open Matte?

    • Dracarys - 03 febrero, 2018

      Sin Franjas negras

  • Rxdrigx17 - 28 enero, 2018

    QUE BUENA, SON LOS MEJORES… DESCARGO UNA Y TIENEN OTRA 😀

  • Tio Higuera - 28 enero, 2018

    en el google drive envia un mensaje que no se puede descargar.

    • Dracarys - 28 enero, 2018

      Agregados Links de mega

    • Tio Higuera - 28 enero, 2018

      No descarten la alternativa de Openload. de favor.

      • Dracarys - 29 enero, 2018

        Los links de openload solo estan Activos un poco mas de 1 mes por eso casi no se usa ese servidor

  • #Cinefilo - 28 enero, 2018

    Ustedes me tienen todo el dia en la pagina descargando jajajja, Muchas Gracias