×

¿Problemas para descargar con Mozilla, EDGE? Deshabilita la opción "Abrir vinculos en una pestaña nueva" tal como lo muestra ésta imagen.

Revancha ya (2022) NF WEB-DL 1080p Latino

302 vistas

Información de Revancha ya (2022) NF WEB-DL 1080p Latino

Datos de la película

  • Calidad: WEBDL
  • Audio: Español Latino E-AC3 5.1 Netflix - Ingles E-AC3 5.1 Netflix
  • Subtitulos: Español Latino SRT- FORZADOS SRT
  • Resolución: 1920x1080p
  • Formato: MKV
  • Codec: H.264
  • Encoder: Melkor
  • Mediainfo: Clic para Mostrar Datos Ver
  • Revancha Ya (2022) NF WebDL 1080p Latino.mkv
    Format                      : Matroska
    Format version              : Version 4
    File size                   : 4.78 GiB
    Duration                    : 2 h 0 min
    Overall bit rate mode       : Variable
    Overall bit rate            : 5 660 kb/s
    Movie name                  : Do Revenge (2022) CinemaniaHDD.Net
    Encoded date                : UTC 2022-09-18 03:34:05
    Writing application         : mkvmerge v56.1.0 ('My Friend') 64-bit
    Writing library             : libebml v1.4.2 + libmatroska v1.6.4
    Attachments                 : CINEMANIAHD.png

    Video
    ID                          : 1
    Format                      : AVC
    Format/Info                 : Advanced Video Codec
    Format profile              : Main@L4
    Format settings             : CABAC / 3 Ref Frames
    Format settings, CABAC      : Yes
    Format settings, Reference  : 3 frames
    Codec ID                    : V_MPEG4/ISO/AVC
    Duration                    : 2 h 0 min
    Bit rate mode               : Variable
    Bit rate                    : 3 609 kb/s
    Nominal bit rate            : 4 870 kb/s
    Maximum bit rate            : 7 305 kb/s
    Width                       : 1 920 pixels
    Height                      : 1 080 pixels
    Display aspect ratio        : 16:9
    Frame rate mode             : Constant
    Frame rate                  : 24.000 FPS
    Color space                 : YUV
    Chroma subsampling          : 4:2:0
    Bit depth                   : 8 bits
    Scan type                   : Progressive
    Bits/(Pixel*Frame)          : 0.073
    Stream size                 : 3.05 GiB (64%)
    Title                       : Web HD1080p [CinemaniaHDD]
    Writing library             : x264 core 148 r2727 7d026e8
    Encoding settings           : cabac=1 / ref=3 / deblock=1:0:0 / analyse=0x1:0x111 / me=umh / subme=10 / psy=1 / psy_rd=1.00:0.00 / mixed_ref=1 / me_range=24 / chroma_me=1 / trellis=2 / 8x8dct=0 / cqm=0 / deadzone=21,11 / fast_pskip=1 / chroma_qp_offset=-2 / threads=6 / lookahead_threads=1 / sliced_threads=0 / nr=0 / decimate=1 / interlaced=0 / bluray_compat=0 / stitchable=1 / constrained_intra=0 / bframes=2 / b_pyramid=0 / b_adapt=2 / b_bias=0 / direct=3 / weightb=1 / open_gop=0 / weightp=2 / keyint=250 / keyint_min=24 / scenecut=0 / intra_refresh=0 / rc_lookahead=48 / rc=2pass / mbtree=1 / bitrate=4870 / ratetol=1.0 / qcomp=0.50 / qpmin=6 / qpmax=51 / qpstep=4 / cplxblur=20.0 / qblur=0.5 / vbv_maxrate=7305 / vbv_bufsize=9740 / nal_hrd=vbr / filler=0 / ip_ratio=1.40 / aq=1:1.00
    Default                     : Yes
    Forced                      : Yes

    Audio #1
    ID                          : 2
    Format                      : AC-3
    Format/Info                 : Audio Coding 3
    Commercial name             : Dolby Digital
    Codec ID                    : A_AC3
    Duration                    : 2 h 0 min
    Bit rate mode               : Constant
    Bit rate                    : 640 kb/s
    Channel(s)                  : 6 channels
    Channel layout              : L R C LFE Ls Rs
    Sampling rate               : 48.0 kHz
    Frame rate                  : 31.250 FPS (1536 SPF)
    Compression mode            : Lossy
    Stream size                 : 553 MiB (11%)
    Title                       : Español Latino AC3 [CinemaniaHDD]
    Language                    : Spanish
    Service kind                : Complete Main
    Default                     : Yes
    Forced                      : Yes

    Audio #2
    ID                          : 3
    Format                      : E-AC-3
    Format/Info                 : Enhanced AC-3
    Commercial name             : Dolby Digital Plus
    Codec ID                    : A_EAC3
    Duration                    : 2 h 0 min
    Bit rate mode               : Constant
    Bit rate                    : 640 kb/s
    Channel(s)                  : 6 channels
    Channel layout              : L R C LFE Ls Rs
    Sampling rate               : 48.0 kHz
    Frame rate                  : 31.250 FPS (1536 SPF)
    Compression mode            : Lossy
    Stream size                 : 553 MiB (11%)
    Title                       : Español Latino EAC3 [CinemaniaHDD]
    Language                    : Spanish
    Service kind                : Complete Main
    Default                     : No
    Forced                      : No

    Audio #3
    ID                          : 4
    Format                      : E-AC-3 JOC
    Format/Info                 : Enhanced AC-3 with Joint Object Coding
    Commercial name             : Dolby Digital Plus with Dolby Atmos
    Codec ID                    : A_EAC3
    Duration                    : 2 h 0 min
    Bit rate mode               : Constant
    Bit rate                    : 768 kb/s
    Channel(s)                  : 6 channels
    Channel layout              : L R C LFE Ls Rs
    Sampling rate               : 48.0 kHz
    Frame rate                  : 31.250 FPS (1536 SPF)
    Compression mode            : Lossy
    Stream size                 : 664 MiB (14%)
    Title                       : Ingles [CinemaniaHDD]
    Language                    : English
    Service kind                : Complete Main
    Default                     : No
    Forced                      : No
    Complexity index            : 16
    Number of dynamic objects   : 15
    Bed channel count           : 1 channel
    Bed channel configuration   : LFE

    Text #1
    ID                          : 5
    Format                      : UTF-8
    Codec ID                    : S_TEXT/UTF8
    Codec ID/Info               : UTF-8 Plain Text
    Duration                    : 1 h 58 min
    Bit rate                    : 1 b/s
    Count of elements           : 49
    Stream size                 : 1.50 KiB (0%)
    Title                       : Forzados-SRT [CinemaniaHDD]
    Language                    : Spanish
    Default                     : Yes
    Forced                      : Yes

    Text #2
    ID                          : 6
    Format                      : UTF-8
    Codec ID                    : S_TEXT/UTF8
    Codec ID/Info               : UTF-8 Plain Text
    Duration                    : 1 h 55 min
    Bit rate                    : 74 b/s
    Count of elements           : 1926
    Stream size                 : 62.9 KiB (0%)
    Title                       : Español-SRT [CinemaniaHDD]
    Language                    : Spanish
    Default                     : No
    Forced                      : No

  • Peso: 4.78 GiB

Sinopsis

Descargar Revancha ya (2022) NF WEB-DL 1080p Latino. La popular Drea quiere vengarse de su novio por filtrar su vídeo sexual y la estudiante transferida Eleanor es perseguida por un rumor. Tras un encuentro inesperado, las dos deciden ayudarse mutuamente buscando vengarse de los acosadores de la otra.

Ficha técnica

Video trailer de la película

Enlaces de descarga

Rip de Bluray

Descargar Revancha ya (2022) NF WEB-DL 1080p Latino




Aportes de DPeliculasHDmega la pass es:dpeliculashdmega.org Aportes de CinemaniaHD la pass es:cinemaniahdd.com Aportes recientes:cinemaniahdd.net
Guardado en : Comedia , Netflix

Películas relacionadas

  • Telma: La Unicornio (2024) NF WEB-DL 1080p Latino

    Telma: La Unicornio (2024) NF WEB-DL 1080p Latino

    2024
    Telma: La Unicornio (2024) NF WEB-DL 1080p Latino

    1h 33m 2024

    Descargar Telma: La Unicornio (2024) NF WEB-DL 1080p Latino. Una poni cantante que sueña con el estrellato...

    Director: Lynn Wang

    Género: Animación

    Actores: Zach Galifianakis

  • El correo (2024) NF WEB-DL 1080p Latino

    El correo (2024) NF WEB-DL 1080p Latino

    2024
    El correo (2024) NF WEB-DL 1080p Latino

    1h 41m 2024

    Descargar El correo (2024) NF WEB-DL 1080p Latino. Año 2002. España entra en el euro. Es tiempo de...

    Director: Daniel Calparsoro

    Género: Crimen

    Actores: Stefan Weinert

  • Antes de conocernos (2023) HD 1080p Latino

    Antes de conocernos (2023) HD 1080p Latino

    2023
    Antes de conocernos (2023) HD 1080p Latino

    1h 38m 2023

    Descargar Antes de conocernos (2023) HD 1080p Latino. Jane y Will, dos adultos jóvenes, dedican tiempo...

    Director: Peter Hutchings

    Género: Comedia

    Actores: Ward Horton

descargar Revancha ya (2022) NF WEB-DL 1080p Latino WEBDL 1080p gratis, Revancha ya (2022) NF WEB-DL 1080p Latino WEBDL mega 1 link, Revancha ya (2022) NF WEB-DL 1080p Latino WEBDL pelicula completa, descargar Revancha ya (2022) NF WEB-DL 1080p Latino WEBDL gratis en mega.

Revancha ya (2022) NF WEB-DL 1080p Latino pelicula full hd, Revancha ya (2022) NF WEB-DL 1080p Latino mega latino, Revancha ya (2022) NF WEB-DL 1080p Latino 4k latino, Revancha ya (2022) NF WEB-DL 1080p Latino pelicula completa, Revancha ya (2022) NF WEB-DL 1080p Latino descargar gratis, descargar Revancha ya (2022) NF WEB-DL 1080p Latino pelicula latino, Revancha ya (2022) NF WEB-DL 1080p Latino 1 link mega, Revancha ya (2022) NF WEB-DL 1080p Latino 1 link google drive, Revancha ya (2022) NF WEB-DL 1080p Latino hd 1080p latino.
Comentarios 0